Форсаж 7 / Furious Seven / Furious 7 (Джеймс Ван / James Wan) [2015, США, боевик, триллер, криминал, BDRip-AVC] [Расширенная версия] Dub + Original (Eng) + Sub (Rus, Ukr, Eng)

Ответить на тему
 
Автор Сообщение

user ®

Стаж: 7 лет 7 месяцев

Сообщений: 20008

Пост Пост: #1 от 04-Авг-2015 17:12

[Цитировать]

Форсаж 7
Furious Seven
«Месть не знает границ»


Страна: США
Жанр: боевик, триллер, криминал
Год выпуска: 2015
Продолжительность: 02:19:54
Перевод: Профессиональный (полное дублирование) [Лицензия]
Субтитры: Русские (полные: BD, Матвеев; форсированные), украинские (полные), английские (полные, SDH, SDH цветные)
Оригинальная аудиодорожка: Английский
Режиссер: Джеймс Ван / James Wan
В ролях: Вин Дизель, Пол Уокер, Джейсон Стэйтем, Мишель Родригес, Дуэйн Джонсон, Тайриз Гибсон, Лудакрис, Натали Эммануэль, Джордана Брюстер, Курт Рассел, Тони Джа, Джимон Хонсу
Описание:
Они покорили Токио и Рио, Лос-Анджелес и Лондон. Но мир больше не играет по их правилам. Зной арабских пустынь, неприлично высокие небоскребы, миллионы долларов на колесах и очень, очень знаменитый злодей. Скорость не знает границ.

Релиз:
Автор рипа: Stalker oK
Сэмпл
Качество видео: BDRip-AVC [Blu-ray Remux 1080p-kinozal]
Формат видео: MKV
Видео кодек: AVC
Аудио кодек: AC3
Видео: 2209 Кбит/сек, 960*400 (2,40:1), в 23,976 кадр/сек, AVC
Аудио №1: Russian, 448 Кбит/сек, 48,0 КГц, 16 бит, 6 канала(ов), AC-3 Blu-ray CEE
Аудио №2: English, 320 Кбит/сек, 48,0 КГц, 16 бит, 6 канала(ов), AC-3
Навигация по главам: есть

MediaInfo
Общее
Уникальный идентификатор : 227051084024833950318119911887486725016 (0xAAD072BACDCB1A71B99DE8A5A6F62B98)
Полное имя : M:\Рипы\Форсаж 7\Furious.7.2015.BDRip-AVC.Dub.2.91Gb...stalkerok.new-team.mkv
Формат : Matroska
Размер файла : 2,91 Гбайт
Продолжительность : 2 ч. 19 м.
Общий поток : 2979 Кбит/сек
Название фильма : Furious 7, 2015 (New-Team) (Rip by Stalker oK)
Дата кодирования : UTC 2015-08-03 13:25:04
Программа кодирования : mkvmerge v7.9.0 ('Birds') 64bit
Библиотека кодирования : libebml v1.3.1 + libmatroska v1.4.2
Видео
Идентификатор : 1
Формат : AVC
Формат/Информация : Advanced Video Codec
Профиль формата : High@L4.1
Параметр CABAC формата : Да
Параметр ReFrames формата : 12 кадры
Идентификатор кодека : V_MPEG4/ISO/AVC
Продолжительность : 2 ч. 19 м.
Битрейт : 2209 Кбит/сек
Ширина : 960 пикс.
Высота : 400 пикс.
Соотношение сторон : 2,40:1
Частота кадров : 23,976 кадр/сек
Цветовое пространство : YUV
Подвыборка цветности : 4:2:0
Битовая глубина : 8 бит
Тип развёртки : Прогрессивная
Бит/(Пиксели*Кадры) : 0.240
Размер потока : 2,10 Гбайт (72%)
Заголовок : Furious 7, 2015 (New-Team) (Rip by Stalker oK)
Библиотека кодирования : x264 core 146 r2538kMod 121396c
Настройки программы : cabac=1 / ref=12 / deblock=1:-3:-2 / analyse=0x3:0x133 / me=umh / subme=11 / psy=1 / fade_compensate=0.00 / psy_rd=1.00:0.10 / mixed_ref=1 / me_range=48 / chroma_me=1 / trellis=2 / 8x8dct=1 / cqm=0 / deadzone=21,11 / fast_pskip=0 / chroma_qp_offset=-3 / threads=12 / lookahead_threads=3 / sliced_threads=0 / nr=0 / decimate=0 / interlaced=0 / bluray_compat=0 / constrained_intra=0 / fgo=0 / bframes=14 / b_pyramid=2 / b_adapt=2 / b_bias=0 / direct=3 / weightb=1 / open_gop=0 / weightp=2 / keyint=240 / keyint_min=23 / scenecut=40 / intra_refresh=0 / rc_lookahead=60 / rc=2pass / mbtree=0 / bitrate=2209 / ratetol=1.0 / qcomp=0.70 / qpmin=0 / qpmax=69 / qpstep=4 / cplxblur=20.0 / qblur=0.5 / vbv_maxrate=50000 / vbv_bufsize=62500 / nal_hrd=none / filler=0 / ip_ratio=1.40 / pb_ratio=1.30 / aq=3:0.90
Аудио #1
Идентификатор : 2
Формат : AC-3
Формат/Информация : Audio Coding 3
Расширение режима : CM (complete main)
Идентификатор кодека : A_AC3
Продолжительность : 2 ч. 19 м.
Вид битрейта : Постоянный
Битрейт : 448 Кбит/сек
Канал(ы) : 6 канала(ов)
Расположение каналов : Front: L C R, Side: L R, LFE
Частота : 48,0 КГц
Битовая глубина : 16 бит
Метод сжатия : С потерями
Размер потока : 448 Мбайт (15%)
Заголовок : АС3 5.1 @ 448 kbps - Dub, BD EUR
Язык : Russian
Аудио #2
Идентификатор : 3
Формат : AC-3
Формат/Информация : Audio Coding 3
Расширение режима : CM (complete main)
Идентификатор кодека : A_AC3
Продолжительность : 2 ч. 19 м.
Вид битрейта : Постоянный
Битрейт : 320 Кбит/сек
Канал(ы) : 6 канала(ов)
Расположение каналов : Front: L C R, Side: L R, LFE
Частота : 48,0 КГц
Битовая глубина : 16 бит
Метод сжатия : С потерями
Размер потока : 320 Мбайт (11%)
Язык : English
Текст #1
Идентификатор : 4
Формат : UTF-8
Идентификатор кодека : S_TEXT/UTF8
Идентификатор кодека/Информация : UTF-8 Plain Text
Заголовок : Full, BD
Язык : Russian
Текст #2
Идентификатор : 5
Формат : UTF-8
Идентификатор кодека : S_TEXT/UTF8
Идентификатор кодека/Информация : UTF-8 Plain Text
Заголовок : Full, Matveev
Язык : Russian
Текст #3
Идентификатор : 6
Формат : UTF-8
Идентификатор кодека : S_TEXT/UTF8
Идентификатор кодека/Информация : UTF-8 Plain Text
Заголовок : Forced
Язык : Russian
Текст #4
Идентификатор : 7
Формат : UTF-8
Идентификатор кодека : S_TEXT/UTF8
Идентификатор кодека/Информация : UTF-8 Plain Text
Заголовок : Full
Язык : Ukrainian
Текст #5
Идентификатор : 8
Формат : UTF-8
Идентификатор кодека : S_TEXT/UTF8
Идентификатор кодека/Информация : UTF-8 Plain Text
Заголовок : Full
Язык : English
Текст #6
Идентификатор : 9
Формат : UTF-8
Идентификатор кодека : S_TEXT/UTF8
Идентификатор кодека/Информация : UTF-8 Plain Text
Заголовок : SDH
Язык : English
Текст #7
Идентификатор : 10
Формат : UTF-8
Идентификатор кодека : S_TEXT/UTF8
Идентификатор кодека/Информация : UTF-8 Plain Text
Заголовок : SDH, Colored
Язык : English
Меню
00:00:00.000 : :Chapter 01
00:04:39.946 : :Chapter 02
00:11:29.480 : :Chapter 03
00:16:39.288 : :Chapter 04
00:25:54.051 : :Chapter 05
00:33:43.895 : :Chapter 06
00:41:44.585 : :Chapter 07
00:46:41.005 : :Chapter 08
00:52:10.710 : :Chapter 09
01:02:31.414 : :Chapter 10
01:06:16.679 : :Chapter 11
01:14:16.868 : :Chapter 12
01:22:34.032 : :Chapter 13
01:33:21.136 : :Chapter 14
01:38:27.484 : :Chapter 15
01:45:40.082 : :Chapter 16
01:53:54.452 : :Chapter 17
01:58:31.061 : :Chapter 18
02:06:19.863 : :Chapter 19
02:11:31.173 : :Chapter 20
02:19:54.593 : :Chapter 21
Скриншоты
Скачать

Скачать торрент!

Как скачивать? · Что такое торрент? · Рейтинг и ограничения

Сайт не распространяет и не хранит электронные версии произведений, а лишь предоставляет доступ к создаваемому пользователями каталогу ссылок на торрент-файлы, которые содержат только списки хеш-сумм

[Профиль] [ЛС]
Показать сообщения:    
Ответить на тему

Текущее время: Сегодня 22:19

Часовой пояс: GMT + 4



Вы не можете начинать темы
Вы не можете отвечать на сообщения
Вы не можете редактировать свои сообщения
Вы не можете удалять свои сообщения
Вы не можете голосовать в опросах
Вы не можете прикреплять файлы к сообщениям
Вы не можете скачивать файлы