Крепись! / Get Hard (Этан Коэн / Etan Cohen) [2015, США, комедия, криминал, BDRip-AVC] MVO + Original (eng) + sub (rus, eng)

Ответить на тему
 
Автор Сообщение

user ®

Стаж: 7 лет 7 месяцев

Сообщений: 20008

Пост Пост: #1 от 04-Авг-2015 17:12

[Цитировать]

-Крепись! / Get Hard Страна: США
Жанр: Комедия
Год выпуска: 2015
Продолжительность: 01:40:18-Перевод: Профессиональный (Многоголосый закадровый) iTunes
Cубтитры: русские, английские
Оригинальная аудиодорожка: английский-Режиссер: Этан Коэн / Etan Cohen-В ролях-Уилл Феррелл, Кевин Харт, Крэйг Т. Нельсон, Элисон Бри, Эдвина Финдли, Ариана Нил, Эрик Чаварриа, Ти-Ай, Пол Бен-Виктор, Джон Майер-Описание-Богатый менеджер инвестиционного банка осуждён за преступление, которого он не совершал, и готовится к тюрьме. А помогает ему в этом парень, который моет его машину.-Качество видео: BDRip
Исходное видео: Blu-ray Remux (GET_HARD_RMX-BLUEBIRD)-Контейнер: MKV-Видео: AVC, 1152х648 (16:9), ~3000 kbps, 23.976 fps,
Аудио: AC-3, 384 kbps, Dolby Digital, 3/2 (L,C,R,l,r) + LFE ch, 48 KHz |MVO|
Аудио: AC-3, 448 kbps, Dolby Digital, 3/2 (L,C,R,l,r) + LFE ch, 48 KHz |оригинал|
Формат субтитров: softsub (SRT)--

MediaInfo
x264
VIDEO ENCODING
------------------------------
Encoding video to: C:\Temp\0050.264
x264 Q17.9 1152x648 23.976fps (144301 frames)
avs4x26x.exe: -L x264_64.exe --crf 17.9 --preset veryslow --profile high --level 4.1 --ref 11 --aq-mode 3 --aq-strength 0.7 --deblock -3:-3 --merange 32 --bframes 14 --subme 11 --no-mbtree --keyint 240 --colorprim bt709 --transfer bt709 --colormatrix bt709 --vbv-bufsize 62500 --vbv-maxrate 50000 --partitions p8x8,b8x8,i4x4,i8x8 --zones 138987,144301,q=35 --sar 1:1 --output "C:\Temp\0050.264" "C:\Temp\0050.avs"
raw [info]: 1152x648p 1:1 @ 24000/1001 fps (cfr)
x264 [info]: using SAR=1/1
x264 [info]: using cpu capabilities: MMX2 SSE2Fast LZCNT
x264 [info]: profile High, level 4.1
x264 [info]: frame I:1632 Avg QP:17.04 size: 96433
x264 [info]: frame P:30565 Avg QP:18.75 size: 34291
x264 [info]: frame B:112104 Avg QP:21.23 size: 9953
x264 [info]: consecutive B-frames: 2.0% 1.8% 6.1% 27.0% 19.6% 30.8% 5.1% 4.3% 1.2% 0.3% 0.2% 0.4% 0.2% 0.8% 0.3%
x264 [info]: mb I I16..4: 4.3% 78.6% 17.2%
x264 [info]: mb P I16..4: 0.5% 8.9% 1.2% P16..4: 32.2% 37.4% 13.2% 0.0% 0.0% skip: 6.6%
x264 [info]: mb B I16..4: 0.1% 0.8% 0.1% B16..8: 35.4% 19.6% 3.0% direct: 3.9% skip:37.0% L0:41.6% L1:45.9% BI:12.5%
x264 [info]: 8x8 transform intra:82.2% inter:65.7%
x264 [info]: direct mvs spatial:99.9% temporal:0.1%
x264 [info]: coded y,uvDC,uvAC intra: 91.3% 87.2% 68.1% inter: 21.0% 17.5% 4.8%
x264 [info]: i16 v,h,dc,p: 24% 15% 4% 57%
x264 [info]: i8 v,h,dc,ddl,ddr,vr,hd,vl,hu: 12% 7% 5% 10% 14% 14% 13% 12% 12%
x264 [info]: i4 v,h,dc,ddl,ddr,vr,hd,vl,hu: 15% 8% 4% 9% 15% 14% 13% 11% 11%
x264 [info]: i8c dc,h,v,p: 40% 21% 20% 18%
x264 [info]: Weighted P-Frames: Y:3.4% UV:2.1%
x264 [info]: ref P L0: 46.5% 11.2% 17.1% 6.1% 5.3% 3.6% 3.4% 1.8% 1.8% 1.4% 1.6% 0.2% 0.0%
x264 [info]: ref B L0: 74.8% 11.1% 5.3% 2.8% 1.9% 1.6% 1.2% 0.8% 0.4% 0.3%
x264 [info]: ref B L1: 93.1% 6.9%
Полное имя : J:\Раздачи\Get Hard (2015)_RGTru_BDRip_cw.mkv
Формат : Matroska
Версия формата : Version 2
Размер файла : 2,75 Гбайт
Продолжительность : 1 ч. 40 м.
Общий поток : 3920 Кбит/сек
Название фильма : Крепись! / Get Hard (2015)_RGTru
Дата кодирования : UTC 2015-08-03 23:14:02
Программа кодирования : mkvmerge v7.8.0 ('River Man') 32bit built on Apr 3 2015 12:11:22
Библиотека кодирования : libebml v1.3.1 + libmatroska v1.4.2
Видео
Идентификатор : 1
Формат : AVC
Формат/Информация : Advanced Video Codec
Профиль формата : High@L4.1
Параметр CABAC формата : Да
Параметр ReFrames формата : 11 кадров
Идентификатор кодека : V_MPEG4/ISO/AVC
Продолжительность : 1 ч. 40 м.
Битрейт : 3010 Кбит/сек
Ширина : 1152 пикселя
Высота : 648 пикселей
Соотношение сторон : 16:9
Режим частоты кадров : Постоянный
Частота кадров : 23,976 кадра/сек
Цветовое пространство : YUV
Субдискретизация насыщенности : 4:2:0
Битовая глубина : 8 бит
Тип развёртки : Прогрессивная
Бит/(Пиксели*Кадры) : 0.168
Размер потока : 2,11 Гбайт (77%)
Заголовок : Get Hard (2015)_RGTru_BDRip_cw
Библиотека кодирования : x264 core 146 r2538 121396c
Настройки программы : cabac=1 / ref=11 / deblock=1:-3:-3 / analyse=0x3:0x113 / me=umh / subme=11 / psy=1 / psy_rd=1.00:0.00 / mixed_ref=1 / me_range=32 / chroma_me=1 / trellis=2 / 8x8dct=1 / cqm=0 / deadzone=21,11 / fast_pskip=1 / chroma_qp_offset=-2 / threads=4 / lookahead_threads=1 / sliced_threads=0 / nr=0 / decimate=1 / interlaced=0 / bluray_compat=0 / constrained_intra=0 / bframes=14 / b_pyramid=2 / b_adapt=2 / b_bias=0 / direct=3 / weightb=1 / open_gop=0 / weightp=2 / keyint=240 / keyint_min=23 / scenecut=40 / intra_refresh=0 / rc_lookahead=60 / rc=crf / mbtree=0 / crf=17.9 / qcomp=0.60 / qpmin=0 / qpmax=69 / qpstep=4 / vbv_maxrate=50000 / vbv_bufsize=62500 / crf_max=0.0 / nal_hrd=none / filler=0 / ip_ratio=1.40 / pb_ratio=1.30 / aq=3:0.70 / zones=138987,144301,q=35
Язык : English
Default : Да
Forced : Нет
Цветовой диапазон : Limited
Основные цвета : BT.709
Характеристики трансфера : BT.709
Коэффициенты матрицы : BT.709
Аудио #1
Идентификатор : 2
Формат : AC-3
Формат/Информация : Audio Coding 3
Расширение режима : CM (complete main)
Параметр Endianness формата : Big
Идентификатор кодека : A_AC3
Продолжительность : 1 ч. 40 м.
Вид битрейта : Постоянный
Битрейт : 384 Кбит/сек
Каналы : 6 каналов
Расположение каналов : Front: L C R, Side: L R, LFE
Частота : 48,0 КГц
Битовая глубина : 16 бит
Метод сжатия : С потерями
Размер потока : 276 Мбайт (10%)
Заголовок : MVO (iTunes)
Язык : Russian
Default : Да
Forced : Нет
Аудио #2
Идентификатор : 3
Формат : AC-3
Формат/Информация : Audio Coding 3
Расширение режима : CM (complete main)
Параметр Endianness формата : Big
Идентификатор кодека : A_AC3
Продолжительность : 1 ч. 40 м.
Вид битрейта : Постоянный
Битрейт : 448 Кбит/сек
Каналы : 6 каналов
Расположение каналов : Front: L C R, Side: L R, LFE
Частота : 48,0 КГц
Битовая глубина : 16 бит
Метод сжатия : С потерями
Размер потока : 321 Мбайт (11%)
Заголовок : Original
Язык : English
Default : Нет
Forced : Нет
Текст #1
Идентификатор : 4
Формат : UTF-8
Идентификатор кодека : S_TEXT/UTF8
Идентификатор кодека/Информация : UTF-8 Plain Text
Заголовок : Forced
Язык : Russian
Default : Да
Forced : Нет
Текст #2
Идентификатор : 5
Формат : UTF-8
Идентификатор кодека : S_TEXT/UTF8
Идентификатор кодека/Информация : UTF-8 Plain Text
Заголовок : Full
Язык : Russian
Default : Нет
Forced : Нет
Текст #3
Идентификатор : 6
Формат : UTF-8
Идентификатор кодека : S_TEXT/UTF8
Идентификатор кодека/Информация : UTF-8 Plain Text
Заголовок : SDH
Язык : English
Default : Нет
Forced : Нет
Меню
00:00:00.000 : en:1
00:11:30.000 : en:2
00:20:52.000 : en:3
00:28:41.000 : en:4
00:40:56.000 : en:5
00:50:52.000 : en:6
01:00:05.000 : en:7
01:09:33.000 : en:8
01:19:08.000 : en:9
01:31:29.000 : en:10
01:36:35.000 : en:11
Скриншоты
Сравнение с исходником
Рип-- БД
Скачать

Скачать торрент!

Как скачивать? · Что такое торрент? · Рейтинг и ограничения

Сайт не распространяет и не хранит электронные версии произведений, а лишь предоставляет доступ к создаваемому пользователями каталогу ссылок на торрент-файлы, которые содержат только списки хеш-сумм

[Профиль] [ЛС]
Показать сообщения:    
Ответить на тему

Текущее время: Сегодня 15:51

Часовой пояс: GMT + 4



Вы не можете начинать темы
Вы не можете отвечать на сообщения
Вы не можете редактировать свои сообщения
Вы не можете удалять свои сообщения
Вы не можете голосовать в опросах
Вы не можете прикреплять файлы к сообщениям
Вы не можете скачивать файлы