Молодежь / Young Ones (Джейк Пэлтроу / Jake Paltrow) [2014, ЮАР, Ирландия, драма, BDRip 1080p] MVO + Sub Eng + Original Eng

Ответить на тему
 
Автор Сообщение

user ®

Стаж: 7 лет 7 месяцев

Сообщений: 20008

Пост Пост: #1 от 04-Авг-2015 01:45

[Цитировать]

-Молодежь | Young Ones- Год выпуска: 2014
Страна: ЮАР, Ирландия
Студия: Bifrost Pictures, Quickfire Films, Spier Films, Subotica Entertainment Ltd.
Жанр: драма
Продолжительность: 01:42:20-Перевод: Профессиональный (многоголосый закадровый) | Официальный
Cубтитры: английские
Оригинальная аудиодорожка: английский-Режиссёр: Джейк Пэлтроу / Jake Paltrow-В ролях: Николас Холт, Эль Фаннинг, Коди Смит-МакФи, Майкл Шеннон, Айми Маллинз, Алекс МакГрегор, Энди МакФи, Лиа О’Прей, Роберт Хоббс, Дэвид Батлер-Описание: Когда Эрнест и его сын Жером потратили последние средства семьи на покупку роботизированного мула, для того чтобы доставлять продовольственные пайки для группы рабочих, которые бурят скважины для воды, они никогда не думали, что так сильно изменят свое будущее. Флем строит планы относительно дочери Эрнеста - Мэри и надеется вернуть себе земли, которыми владел его отец в период расцвета промышленного сельского хозяйства в начале XXI века. Когда желания Флема осуществляются путем блестящего использования лжи и манипулирования, происходит ряд событий, которые изменят их молодую жизнь навсегда и Жером вынужден будет сделать выбор, который не должен делать ни один ребенок.- -Качество: BDRip 1080p
Формат: MKV
Видео: x264, ~ 12500 kbps, 1920x804 (16:9), 23,976 fps
Аудио 1: AC3, 48,0 КГц, 2 ch, 192 kbps - Rus
Аудио 2: DTS, 48,0 КГц, 6 ch, 1510 kbps- Eng
Субтитры: Английские-MediaInfo
Общее
Уникальный идентификатор                 : 245760660516439171833028750607908991289 (0xB8E3C811F6A0D63DA10E7C75A3C1F139)
Полное имя                               : D:\загрузки\Young.Ones.2014.Р.Blu.Ray.1080p.mkv
Формат                                   : Matroska
Версия формата                           : Version 4 / Version 2
Размер файла                             : 10,2 Гбайт
Продолжительность                        : 1 ч. 40 м.
Общий поток                              : 14,5 Мбит/сек
Дата кодирования                         : UTC 2015-08-01 17:02:16
Программа кодирования                    : mkvmerge v7.3.0 ('Nouages') 32bit built on Oct 22 2014 18:44:01
Библиотека кодирования                   : libebml v1.3.0 + libmatroska v1.4.1
DURATION                                 : 01:40:19.979000000
NUMBER_OF_FRAMES                         : 564373
NUMBER_OF_BYTES                          : 1135518476
_STATISTICS_WRITING_APP                  : mkvmerge v7.3.0 ('Nouages') 32bit built on Oct 22 2014 18:44:01
_STATISTICS_WRITING_DATE_UTC             : 2015-08-01 17:02:16
_STATISTICS_TAGS                         : BPS DURATION NUMBER_OF_FRAMES NUMBER_OF_BYTES
Видео
Идентификатор                            : 1
Формат                                   : AVC
Формат/Информация                        : Advanced Video Codec
Профиль формата                          : High@L4.1
Параметр CABAC формата                   : Да
Параметр ReFrames формата                : 5 кадров
Идентификатор кодека                     : V_MPEG4/ISO/AVC
Продолжительность                        : 1 ч. 40 м.
Битрейт                                  : 12,5 Мбит/сек
Ширина                                   : 1920 пикселей
Высота                                   : 804 пикселя
Соотношение сторон                       : 2,40:1
Режим частоты кадров                     : Постоянный
Частота кадров                           : 23,976 кадра/сек
Цветовое пространство                    : YUV
Субдискретизация насыщенности            : 4:2:0
Битовая глубина                          : 8 бит
Тип развёртки                            : Прогрессивная
Бит/(Пиксели*Кадры)                      : 0.338
Размер потока                            : 8,78 Гбайт (86%)
Библиотека кодирования                   : x264 core 142 r2479kMod dd79a61
Настройки программы                      : cabac=1 / ref=5 / deblock=1:-3:-3 / analyse=0x3:0x133 / me=umh / subme=9 / psy=1 / fade_compensate=0.00 / psy_rd=1.05:0.00 / mixed_ref=1 / me_range=24 / chroma_me=1 / trellis=2 / 8x8dct=1 / cqm=0 / deadzone=21,11 / fast_pskip=0 / chroma_qp_offset=-2 / threads=18 / lookahead_threads=4 / sliced_threads=0 / nr=0 / decimate=1 / interlaced=0 / bluray_compat=0 / constrained_intra=0 / fgo=0 / bframes=11 / b_pyramid=2 / b_adapt=2 / b_bias=0 / direct=3 / weightb=1 / open_gop=0 / weightp=2 / keyint=230 / keyint_min=23 / scenecut=40 / intra_refresh=0 / rc_lookahead=40 / rc=crf / mbtree=0 / crf=19.0000 / qcomp=0.65 / qpmin=0 / qpmax=69 / qpstep=4 / vbv_maxrate=50000 / vbv_bufsize=62500 / crf_max=0.0 / nal_hrd=none / filler=0 / ip_ratio=1.20 / pb_ratio=1.10 / aq=1:0.92
Язык                                     : English
Default                                  : Да
Forced                                   : Нет
DURATION                                 : 01:40:19.973000000
NUMBER_OF_FRAMES                         : 144335
NUMBER_OF_BYTES                          : 9639081689
_STATISTICS_WRITING_APP                  : mkvmerge v7.3.0 ('Nouages') 32bit built on Oct 22 2014 18:44:01
_STATISTICS_WRITING_DATE_UTC             : 2015-08-01 17:02:16
_STATISTICS_TAGS                         : BPS DURATION NUMBER_OF_FRAMES NUMBER_OF_BYTES
Коэффициенты матрицы                     : BT.709
Аудио #1
Идентификатор                            : 4
Формат                                   : AC-3
Формат/Информация                        : Audio Coding 3
Расширение режима                        : CM (complete main)
Параметр Endianness формата              : Big
Идентификатор кодека                     : A_AC3
Продолжительность                        : 1 ч. 40 м.
Вид битрейта                             : Постоянный
Битрейт                                  : 192 Кбит/сек
Каналы                                   : 2 канала
Расположение каналов                     : Front: L R
Частота                                  : 48,0 КГц
Битовая глубина                          : 16 бит
Метод сжатия                             : С потерями
Размер потока                            : 138 Мбайт (1%)
Язык                                     : Russian
Default                                  : Да
Forced                                   : Нет
Аудио #2
Идентификатор                            : 5
Формат                                   : DTS
Формат/Информация                        : Digital Theater Systems
Режим                                    : 16
Параметр Endianness формата              : Big
Идентификатор кодека                     : A_DTS
Продолжительность                        : 1 ч. 40 м.
Вид битрейта                             : Постоянный
Битрейт                                  : 1509 Кбит/сек
Каналы                                   : 6 каналов
Расположение каналов                     : Front: L C R, Side: L R, LFE
Частота                                  : 48,0 КГц
Битовая глубина                          : 16 бит
Метод сжатия                             : С потерями
Размер потока                            : 1,06 Гбайт (10%)
Язык                                     : English
Default                                  : Нет
Forced                                   : Нет
Текст #1
Идентификатор                            : 2
Формат                                   : UTF-8
Идентификатор кодека                     : S_TEXT/UTF8
Идентификатор кодека/Информация          : UTF-8 Plain Text
Язык                                     : Russian
Default                                  : Да
Forced                                   : Да
Текст #2
Идентификатор                            : 3
Формат                                   : UTF-8
Идентификатор кодека                     : S_TEXT/UTF8
Идентификатор кодека/Информация          : UTF-8 Plain Text
Язык                                     : English
Default                                  : Нет
Forced                                   : Нет
Меню
00:00:00.000                             : en:00:00:00.000
00:09:42.499                             : en:00:09:42.499
00:16:48.799                             : en:00:16:48.799
00:25:24.690                             : en:00:25:24.690
00:32:50.719                             : en:00:32:50.719
00:43:19.555                             : en:00:43:19.555
00:49:27.798                             : en:00:49:27.798
00:58:26.837                             : en:00:58:26.837
01:08:11.170                             : en:01:08:11.170
01:16:23.287                             : en:01:16:23.287
01:24:09.503                             : en:01:24:09.503
01:32:10.066                             : en:01:32:10.066
Скриншоты Ссылка на предыдущие и альтернативные раздачи
[url=http://***/forum/tracker.php?nm=Молодежь%20%2F%20Young%20Ones]http://***/forum/tracker.php?nm=Молодежь%...F%20Young%20Ones[/url]
Скачать

Скачать торрент!

Как скачивать? · Что такое торрент? · Рейтинг и ограничения

Сайт не распространяет и не хранит электронные версии произведений, а лишь предоставляет доступ к создаваемому пользователями каталогу ссылок на торрент-файлы, которые содержат только списки хеш-сумм

[Профиль] [ЛС]
Показать сообщения:    
Ответить на тему

Текущее время: Сегодня 10:07

Часовой пояс: GMT + 4



Вы не можете начинать темы
Вы не можете отвечать на сообщения
Вы не можете редактировать свои сообщения
Вы не можете удалять свои сообщения
Вы не можете голосовать в опросах
Вы не можете прикреплять файлы к сообщениям
Вы не можете скачивать файлы