Хорошее убийство / Good Kill (Эндрю Никкол / Andrew Niccol) [2014, США, триллер, драма, BDRip 1080p] DVO (ColdFilm) + Sub Eng + Original Eng

Ответить на тему
 
Автор Сообщение

user ®

Стаж: 7 лет 7 месяцев

Сообщений: 20008

Пост Пост: #1 от 04-Авг-2015 01:45

[Цитировать]

Хорошее убийство / Good Kill
Страна: США
Студия: Voltage Pictures, Dune Films, Sobini Films
Жанр: триллер, драма
Год выпуска: 2014
Продолжительность: 01:42:33
Перевод: Любительский (двухголосый закадровый) ColdFilm
Cубтитры: английские
Оригинальная аудиодорожка: английский
Режиссер: Эндрю Никкол / Andrew Niccol
В ролях: Дженьюэри Джонс, Итан Хоук, Зои Кравиц, Джейк Эйбел, Брюс Гринвуд, Альма Сиснерос, Кристен Рейкс, Рич Чавез, Майкл Шитс, Билл Сьюард
Описание: Действие фильма развернется вокруг летчика, управляющего беспилотным истребителем из Лос-Анджелеса. Каждый день он атакует талибов на другом конце земного шара, а по вечерам отправляется домой, где его ждут скандалы с женой и детьми. Устав от такой жизни, главный герой начинает сомневаться в правильности своей миссии. Ведь сколько бы террористов он не убил, им на смену приходят новые.
II Сэмпл II IMDB II
Доп. информация:
За русскую дорогу спасибо jersei
Удалена аудио реклама в начале и в конце фильма
Тип релиза: BDRip 1080p
Контейнер: MKV
Видео: AVC / 1920x1080 / 16:9 / 23.976fps / Bit rate 16000Kbps / High@L4.1
Аудио 1: AC3 / 48.0 KHz / 2ch. / 192kbps / rus / dvo / ColdFilm
Аудио 2: DTS / 48.0 KHz / 6ch. / 1509kbps / 24bit / eng
Формат субтитров: softsub (SRT)
MediaInfo
Общее
Уникальный идентификатор : 235491481137161068306468606137923454722 (0xB12A026FB508A799BD4885249786C702)
Полное имя : H:\!_Torrent\Good.Kill.2014.BDRip.1080p_by_vedigo.mkv
Формат : Matroska
Версия формата : Version 4 / Version 2
Размер файла : 12,7 Гбайт
Продолжительность : 1 ч. 42 м.
Общий поток : 17,7 Мбит/сек
Дата кодирования : UTC 2015-08-02 00:57:36
Программа кодирования : mkvmerge v8.2.0 ('World of Adventure') 64bit
Библиотека кодирования : libebml v1.3.1 + libmatroska v1.4.2
DURATION : 01:37:44.707000000
NUMBER_OF_FRAMES : 839
NUMBER_OF_BYTES : 29547
_STATISTICS_WRITING_APP : mkvmerge v8.2.0 ('World of Adventure') 64bit
_STATISTICS_WRITING_DATE_UTC : 2015-08-02 00:57:36
_STATISTICS_TAGS : BPS DURATION NUMBER_OF_FRAMES NUMBER_OF_BYTES
Видео
Идентификатор : 1
Формат : AVC
Формат/Информация : Advanced Video Codec
Профиль формата : High@L4.1
Параметр CABAC формата : Да
Параметр ReFrames формата : 4 кадра
Идентификатор кодека : V_MPEG4/ISO/AVC
Продолжительность : 1 ч. 42 м.
Битрейт : 16,0 Мбит/сек
Ширина : 1920 пикселей
Высота : 1080 пикселей
Соотношение сторон : 16:9
Режим частоты кадров : Постоянный
Частота кадров : 23,976 кадра/сек
Цветовое пространство : YUV
Субдискретизация насыщенности : 4:2:0
Битовая глубина : 8 бит
Тип развёртки : Прогрессивная
Бит/(Пиксели*Кадры) : 0.322
Размер потока : 11,2 Гбайт (88%)
Заголовок : Good.Kill.2014.BDRip.1080p_by_vedigo
Библиотека кодирования : x264 core 146 r2538 121396c
Настройки программы : cabac=1 / ref=4 / deblock=1:-3:-3 / analyse=0x3:0x133 / me=umh / subme=11 / psy=1 / psy_rd=1.00:0.10 / mixed_ref=1 / me_range=64 / chroma_me=1 / trellis=2 / 8x8dct=1 / cqm=0 / deadzone=21,11 / fast_pskip=0 / chroma_qp_offset=-3 / threads=12 / lookahead_threads=2 / sliced_threads=0 / nr=0 / decimate=1 / interlaced=0 / bluray_compat=0 / constrained_intra=0 / bframes=8 / b_pyramid=2 / b_adapt=2 / b_bias=0 / direct=3 / weightb=1 / open_gop=0 / weightp=2 / keyint=250 / keyint_min=23 / scenecut=40 / intra_refresh=0 / rc_lookahead=40 / rc=2pass / mbtree=0 / bitrate=16000 / ratetol=1.0 / qcomp=0.60 / qpmin=0 / qpmax=69 / qpstep=4 / cplxblur=20.0 / qblur=0.5 / vbv_maxrate=50000 / vbv_bufsize=62500 / nal_hrd=none / filler=0 / ip_ratio=1.40 / pb_ratio=1.30 / aq=1:1.00
Default : Да
Forced : Нет
DURATION : 01:42:33.898000000
NUMBER_OF_FRAMES : 147546
NUMBER_OF_BYTES : 12293481830
_STATISTICS_WRITING_APP : mkvmerge v8.2.0 ('World of Adventure') 64bit
_STATISTICS_WRITING_DATE_UTC : 2015-08-02 00:57:36
_STATISTICS_TAGS : BPS DURATION NUMBER_OF_FRAMES NUMBER_OF_BYTES
Аудио #1
Идентификатор : 2
Формат : AC-3
Формат/Информация : Audio Coding 3
Расширение режима : CM (complete main)
Параметр Endianness формата : Big
Идентификатор кодека : A_AC3
Продолжительность : 1 ч. 42 м.
Вид битрейта : Постоянный
Битрейт : 192 Кбит/сек
Каналы : 2 канала
Расположение каналов : Front: L R
Частота : 48,0 КГц
Метод сжатия : С потерями
Размер потока : 141 Мбайт (1%)
Заголовок : DVO @ ColdFilm
Язык : Russian
Default : Да
Forced : Нет
Аудио #2
Идентификатор : 3
Формат : DTS
Формат/Информация : Digital Theater Systems
Режим : 16
Параметр Endianness формата : Big
Идентификатор кодека : A_DTS
Продолжительность : 1 ч. 42 м.
Вид битрейта : Постоянный
Битрейт : 1509 Кбит/сек
Каналы : 6 каналов
Расположение каналов : Front: L C R, Side: L R, LFE
Частота : 48,0 КГц
Битовая глубина : 24 бит
Метод сжатия : С потерями
Размер потока : 1,08 Гбайт (9%)
Заголовок : original
Язык : English
Default : Нет
Forced : Нет
Текст
Идентификатор : 4
Формат : UTF-8
Идентификатор кодека : S_TEXT/UTF8
Идентификатор кодека/Информация : UTF-8 Plain Text
Заголовок : subtitle eng
Язык : English
Default : Нет
Forced : Нет
Меню
00:00:00.000 : es:Chapter 01
00:07:17.687 : es:Chapter 02
00:16:47.548 : es:Chapter 03
00:25:27.609 : es:Chapter 04
00:35:40.763 : es:Chapter 05
00:44:26.163 : es:Chapter 06
00:51:23.872 : es:Chapter 07
01:00:38.009 : es:Chapter 08
01:12:20.919 : es:Chapter 09
01:18:34.042 : es:Chapter 10
01:27:27.575 : es:Chapter 11
01:38:00.583 : es:Chapter 12
Скриншоты Сравнение с исходником x264 info
x264 [info]: frame I:1215 Avg QP:15.56 size:272322
x264 [info]: frame P:29563 Avg QP:16.79 size:166765
x264 [info]: frame B:116768 Avg QP:19.47 size: 60227
x264 [info]: consecutive B-frames: 1.9% 3.9% 3.9% 6.6% 4.9% 76.5% 1.7% 0.3% 0.4%
x264 [info]: mb I I16..4: 20.0% 68.1% 11.9%
x264 [info]: mb P I16..4: 4.6% 32.3% 1.7% P16..4: 21.4% 23.2% 8.2% 1.0% 0.0% skip: 7.7%
x264 [info]: mb B I16..4: 0.3% 4.5% 0.1% B16..8: 49.8% 24.0% 3.1% direct: 5.3% skip:12.9% L0:53.2% L1:36.0% BI:10.8%
x264 [info]: 8x8 transform intra:85.0% inter:61.0%
x264 [info]: direct mvs spatial:97.3% temporal:2.7%
x264 [info]: coded y,uvDC,uvAC intra: 96.4% 87.0% 69.3% inter: 40.8% 28.8% 5.5%
x264 [info]: i16 v,h,dc,p: 14% 4% 46% 36%
x264 [info]: i8 v,h,dc,ddl,ddr,vr,hd,vl,hu: 11% 8% 27% 8% 9% 8% 9% 9% 11%
x264 [info]: i4 v,h,dc,ddl,ddr,vr,hd,vl,hu: 30% 8% 21% 6% 8% 7% 7% 6% 8%
x264 [info]: i8c dc,h,v,p: 49% 23% 17% 10%
x264 [info]: Weighted P-Frames: Y:2.5% UV:1.6%
x264 [info]: ref P L0: 49.4% 10.3% 24.4% 14.8% 1.0% 0.0%
x264 [info]: ref B L0: 88.0% 8.7% 3.3%
x264 [info]: ref B L1: 96.4% 3.6%
x264 [info]: kb/s:15981.39
Скачать

Скачать торрент!

Как скачивать? · Что такое торрент? · Рейтинг и ограничения

Сайт не распространяет и не хранит электронные версии произведений, а лишь предоставляет доступ к создаваемому пользователями каталогу ссылок на торрент-файлы, которые содержат только списки хеш-сумм

[Профиль] [ЛС]
Показать сообщения:    
Ответить на тему

Текущее время: Сегодня 18:20

Часовой пояс: GMT + 4



Вы не можете начинать темы
Вы не можете отвечать на сообщения
Вы не можете редактировать свои сообщения
Вы не можете удалять свои сообщения
Вы не можете голосовать в опросах
Вы не можете прикреплять файлы к сообщениям
Вы не можете скачивать файлы