Копи царя Соломона / King Solomon\'s Mines (Дж. Ли Томпсон / J. Lee Thompson) [1985, США, боевик, мелодрама, комедия, приключения, WEB-DL 720p] MVO (СТС) + MVO + MVO (Ст."Инис") + AVO (Живов) + AVO (Дохалов) + Sub Eng + Original Eng

Ответить на тему
 
Автор Сообщение

user ®

Стаж: 7 лет 7 месяцев

Сообщений: 20008

Пост Пост: #1 от 03-Авг-2015 16:27

[Цитировать]

Копи царя Соломона / King Solomon's Mines
Страна: США
Жанр: боевик, мелодрама, комедия, приключения
Год выпуска: 1985
Продолжительность: 01:40:17
Перевод 1: Профессиональный (многоголосый закадровый) СТС
Перевод 2: Профессиональный (многоголосый закадровый)
Перевод 3: Профессиональный (многоголосый закадровый) Ст."Инис"
Перевод 4: Авторский (одноголосый закадровый) Юрий Живов
Перевод 5: Авторский (одноголосый закадровый) Вартан Дохалов
Cубтитры: английские
Оригинальная аудиодорожка: английский
Режиссер: Дж. Ли Томпсон / J. Lee Thompson
В ролях: Ричард Чемберлен, Шэрон Стоун, Херберт Лом, Джон Рис-Дэвис, Кен Гампу, Джун Бузелези, Сэм Уильямс, Шайке Офир, Мик Лесли, Винсент Ван дер Бил...
Описание: Отец главной героини отправляется на поиски бриллиантовых копей царя Соломона и пропадает без вести. Очаровательная Джесси Хьюстон затевает рискованное сафари для его спасения. Кто же будет ее проводником? Легендарный солдат удачи, известный как Куотермейн.
Чтобы добраться до сокровищ и опередить кровожадного соперника, им приходится преодолеть множество препятствий: от голодных каннибалов и гигантских пауков до зыбучих песков и озер бурлящей лавы. Но нет преград, способных остановить любящие сердца!
Сэмпл: http://multi-up.com/1060957
Тип релиза: WEB-DL 720p
Контейнер: MKV
Видео: 1280x546 (2.35:1), 23.976 fps, H.264, ~4000 kbps avg
Аудио 1: Rus: 48 kHz, AC3, 2 ch, ~192 kbps avg
Аудио 2: Rus: 48 kHz, AC3, 2 ch, ~192 kbps avg
Аудио 3: Rus: 48 kHz, AC3, 2 ch, ~192 kbps avg
Аудио 4: Rus: 48 kHz, AC3, 2 ch, ~192 kbps avg
Аудио 5: Rus: 48 kHz, AC3, 2 ch, ~192 kbps avg
Аудио 5: Eng: 48 kHz, AAC, 2 ch, ~128 kbps avg
MediaInfo
Format : Matroska
File size : 3.69 GiB
Duration : 1h 40mn
Overall bit rate : 5 266 Kbps
Movie name : King.Solomon's.Mines.by_rohh.1985.WEB-DL.720p
Encoded date : UTC 2015-08-02 09:32:33
Writing application : mkvmerge v4.5.0 ('Speed of Light') сборка от Feb 15 2011 12:50:20
Writing library : libebml v1.2.0 + libmatroska v1.1.0
Video
ID : 1
Format : AVC
Format/Info : Advanced Video Codec
Format profile : High@L3.1
Format settings, CABAC : No
Format settings, ReFrames : 2 frames
Muxing mode : Container profile=Unknown@3.1
Codec ID : V_MPEG4/ISO/AVC
Duration : 1h 40mn
Width : 1 280 pixels
Height : 546 pixels
Display aspect ratio : 2.35:1
Frame rate : 23.976 fps
Resolution : 24 bits
Colorimetry : 4:2:0
Scan type : Progressive
Title : King.Solomon's.Mines.by_rohh.1985.WEB-DL.720p
colour_primaries : BT.709-5, BT.1361, IEC 61966-2-4, SMPTE RP177
transfer_characteristics : BT.709-5, BT.1361
matrix_coefficients : BT.709-5, BT.1361, IEC 61966-2-4 709, SMPTE RP177
Audio #1
ID : 2
Format : AC-3
Format/Info : Audio Coding 3
Codec ID : A_AC3
Duration : 1h 40mn
Bit rate mode : Constant
Bit rate : 192 Kbps
Channel(s) : 2 channels
Channel positions : L R
Sampling rate : 48.0 KHz
Delay relative to video : 15s 0ms
Stream size : 138 MiB (4%)
Title : MVO (СТС)
Language : Russian
Audio #2
ID : 3
Format : AC-3
Format/Info : Audio Coding 3
Codec ID : A_AC3
Duration : 1h 40mn
Bit rate mode : Constant
Bit rate : 192 Kbps
Channel(s) : 2 channels
Channel positions : L R
Sampling rate : 48.0 KHz
Delay relative to video : 15s 0ms
Stream size : 138 MiB (4%)
Title : MVO
Language : Russian
Audio #3
ID : 4
Format : AC-3
Format/Info : Audio Coding 3
Codec ID : A_AC3
Duration : 1h 40mn
Bit rate mode : Constant
Bit rate : 192 Kbps
Channel(s) : 2 channels
Channel positions : L R
Sampling rate : 48.0 KHz
Delay relative to video : 15s 0ms
Stream size : 138 MiB (4%)
Title : MVO (Ст. "Инис")
Language : Russian
Audio #4
ID : 5
Format : AC-3
Format/Info : Audio Coding 3
Codec ID : A_AC3
Duration : 1h 40mn
Bit rate mode : Constant
Bit rate : 192 Kbps
Channel(s) : 2 channels
Channel positions : L R
Sampling rate : 48.0 KHz
Delay relative to video : 15s 0ms
Stream size : 138 MiB (4%)
Title : AVO (Юрий Живов)
Language : Russian
Audio #5
ID : 6
Format : AC-3
Format/Info : Audio Coding 3
Codec ID : A_AC3
Duration : 1h 40mn
Bit rate mode : Constant
Bit rate : 192 Kbps
Channel(s) : 2 channels
Channel positions : L R
Sampling rate : 48.0 KHz
Delay relative to video : 15s 0ms
Stream size : 138 MiB (4%)
Title : AVO (Вартан Дохалов)
Language : Russian
Audio #6
ID : 7
Format : AAC
Format/Info : Advanced Audio Codec
Format version : Version 4
Format profile : LC
Format settings, SBR : No
Codec ID : A_AAC
Duration : 1h 40mn
Channel(s) : 2 channels
Channel positions : L R
Sampling rate : 48.0 KHz
Resolution : 16 bits
Title : Original
Text
ID : 8
Format : UTF-8
Codec ID : S_TEXT/UTF8
Codec ID/Info : UTF-8 Plain Text
Title : eng
Скриншоты
Скачать

Скачать торрент!

Как скачивать? · Что такое торрент? · Рейтинг и ограничения

Сайт не распространяет и не хранит электронные версии произведений, а лишь предоставляет доступ к создаваемому пользователями каталогу ссылок на торрент-файлы, которые содержат только списки хеш-сумм

[Профиль] [ЛС]
Показать сообщения:    
Ответить на тему

Текущее время: Сегодня 16:45

Часовой пояс: GMT + 4



Вы не можете начинать темы
Вы не можете отвечать на сообщения
Вы не можете редактировать свои сообщения
Вы не можете удалять свои сообщения
Вы не можете голосовать в опросах
Вы не можете прикреплять файлы к сообщениям
Вы не можете скачивать файлы