Аллан Куотермейн и потерянный город золота / Allan Quatermain and the Lost City of Gold (Гэри Нельсон / Gary Nelson) [1986, США, боевик, комедия, приключения, BDRip 720p] MVO (СТС) + MVO + MVO (Инис) + AVO (Дольский) + Sub Eng + Original Eng

Ответить на тему
 
Автор Сообщение

user ®

Стаж: 7 лет 7 месяцев

Сообщений: 20008

Пост Пост: #1 от 03-Авг-2015 16:27

[Цитировать]

Аллан Куотермейн и потерянный город золота / Allan Quatermain and the Lost City of Gold
Страна: США
Жанр: боевик, комедия, приключения
Год выпуска: 1986
Продолжительность: 01:39:37
Перевод 1: Профессиональный (многоголосый закадровый) СТС
Перевод 2: Профессиональный (многоголосый закадровый)
Перевод 3: Профессиональный (многоголосый закадровый) Ст."Инис"
Перевод 4: Авторский (одноголосый закадровый) Андрей Дольский
Cубтитры: английские
Оригинальная аудиодорожка: английский
Режиссер: Гэри Нельсон / Gary Nelson
В ролях: Ричард Чемберлен, Шэрон Стоун, Джеймс Эрл Джонс, Генри Сильва, Роберт Доннер, Догми Ларби, Эйлин Марсон, Кассандра Петерсон, Мартин Раббетт, Рори Килалеа...
Описание: Продолжение фильма «Копи царя Соломона». Герой возвращается в Африку в поисках своего брата, идущего по следам затерянного белого племени.
Сэмпл: http://multi-up.com/1061024
Тип релиза: BDRip 720p
Контейнер: MKV
Видео: 1280x544 (2.35:1), 23.976 fps, H.264, ~4648 kbps avg
Аудио 1: Rus, 48 KHz, AC3, 2 ch, ~224 Kbps avg
Аудио 2: Rus, 48 kHz, AC3, 2 ch, ~192 kbps avg
Аудио 3: Rus, 48 kHz, AC3, 2 ch, ~192 kbps avg
Аудио 4: Rus, 48 kHz, AC3, 2 ch, ~192 kbps avg
Аудио 5: Eng, 48 kHz, AC3, 2 ch, ~448 kbps avg
MediaInfo
Format : Matroska
File size : 4.19 GiB
Duration : 1h 39mn
Overall bit rate : 6 015 Kbps
Movie name : Allan.Quatermain.and.the.Lost.City.of.Gold.by_rohh.1986.BDRip.720p
Encoded date : UTC 2015-08-03 03:10:35
Writing application : mkvmerge v4.5.0 ('Speed of Light') сборка от Feb 15 2011 12:50:20
Writing library : libebml v1.2.0 + libmatroska v1.1.0
Video
ID : 1
Format : AVC
Format/Info : Advanced Video Codec
Format profile : High@L4.1
Format settings, CABAC : Yes
Format settings, ReFrames : 5 frames
Muxing mode : Container profile=Unknown@4.1
Codec ID : V_MPEG4/ISO/AVC
Duration : 1h 39mn
Bit rate : 4 648 Kbps
Nominal bit rate : 4 771 Kbps
Width : 1 280 pixels
Height : 544 pixels
Display aspect ratio : 2.35:1
Frame rate : 23.976 fps
Resolution : 24 bits
Colorimetry : 4:2:0
Scan type : Progressive
Bits/(Pixel*Frame) : 0.278
Stream size : 3.23 GiB (77%)
Title : Allan.Quatermain.and.the.Lost.City.of.Gold.by_rohh.1986.BDRip.720p
Writing library : x264 core 146 r2538 121396c
Encoding settings : cabac=1 / ref=5 / deblock=1:0:0 / analyse=0x3:0x133 / me=umh / subme=8 / psy=1 / psy_rd=1.00:0.00 / mixed_ref=1 / me_range=16 / chroma_me=1 / trellis=1 / 8x8dct=1 / cqm=0 / deadzone=21,11 / fast_pskip=0 / chroma_qp_offset=-2 / threads=12 / lookahead_threads=2 / sliced_threads=0 / nr=0 / decimate=1 / interlaced=0 / bluray_compat=0 / constrained_intra=0 / bframes=3 / b_pyramid=2 / b_adapt=1 / b_bias=0 / direct=1 / weightb=1 / open_gop=0 / weightp=2 / keyint=250 / keyint_min=23 / scenecut=40 / intra_refresh=0 / rc_lookahead=40 / rc=2pass / mbtree=1 / bitrate=4771 / ratetol=1.0 / qcomp=0.60 / qpmin=0 / qpmax=69 / qpstep=4 / cplxblur=20.0 / qblur=0.5 / ip_ratio=1.40 / aq=1:1.00
Audio #1
ID : 2
Format : AC-3
Format/Info : Audio Coding 3
Codec ID : A_AC3
Duration : 1h 39mn
Bit rate mode : Constant
Bit rate : 224 Kbps
Channel(s) : 2 channels
Channel positions : L R
Sampling rate : 48.0 KHz
Stream size : 160 MiB (4%)
Title : MVO (СТС)
Language : Russian
Audio #2
ID : 3
Format : AC-3
Format/Info : Audio Coding 3
Codec ID : A_AC3
Duration : 1h 39mn
Bit rate mode : Constant
Bit rate : 192 Kbps
Channel(s) : 2 channels
Channel positions : L R
Sampling rate : 48.0 KHz
Stream size : 137 MiB (3%)
Title : MVO
Language : Russian
Audio #3
ID : 4
Format : AC-3
Format/Info : Audio Coding 3
Codec ID : A_AC3
Duration : 1h 39mn
Bit rate mode : Constant
Bit rate : 192 Kbps
Channel(s) : 2 channels
Channel positions : L R
Sampling rate : 48.0 KHz
Stream size : 137 MiB (3%)
Title : MVO (Ст. "Инис")
Language : Russian
Audio #4
ID : 5
Format : AC-3
Format/Info : Audio Coding 3
Codec ID : A_AC3
Duration : 1h 39mn
Bit rate mode : Constant
Bit rate : 192 Kbps
Channel(s) : 2 channels
Channel positions : L R
Sampling rate : 48.0 KHz
Stream size : 137 MiB (3%)
Title : AVO (Андрей Дольский)
Language : Russian
Audio #5
ID : 6
Format : AC-3
Format/Info : Audio Coding 3
Codec ID : A_AC3
Duration : 1h 39mn
Bit rate mode : Constant
Bit rate : 448 Kbps
Channel(s) : 2 channels
Channel positions : L R
Sampling rate : 48.0 KHz
Stream size : 319 MiB (7%)
Title : Original
Text
ID : 7
Format : UTF-8
Codec ID : S_TEXT/UTF8
Codec ID/Info : UTF-8 Plain Text
Title : eng
Скриншоты
Скачать

Скачать торрент!

Как скачивать? · Что такое торрент? · Рейтинг и ограничения

Сайт не распространяет и не хранит электронные версии произведений, а лишь предоставляет доступ к создаваемому пользователями каталогу ссылок на торрент-файлы, которые содержат только списки хеш-сумм

[Профиль] [ЛС]
Показать сообщения:    
Ответить на тему

Текущее время: Сегодня 16:34

Часовой пояс: GMT + 4



Вы не можете начинать темы
Вы не можете отвечать на сообщения
Вы не можете редактировать свои сообщения
Вы не можете удалять свои сообщения
Вы не можете голосовать в опросах
Вы не можете прикреплять файлы к сообщениям
Вы не можете скачивать файлы