Форсаж 7 / Furious Seven / Furious 7 (Джеймс Ван / James Wan) [2015 г., США, боевик, триллер, криминал, BDRip-AVC] [Extended Cut] Dub + Original Eng + Sub (Rus, Ukr, Eng)

Ответить на тему
 
Автор Сообщение

user ®

Стаж: 7 лет 7 месяцев

Сообщений: 20008

Пост Пост: #1 от 03-Авг-2015 07:09

[Цитировать]

-Форсаж 7 / Furious Seven / Furious 7«Месть не знает границ» Страна: США
Студия: China Film Co., Dentsu, Fast 7 Productions, Media Rights Capital, One Race Films, Original Film, Universal Pictures
Жанр: боевик, триллер, криминал
Год выпуска: 2015
Продолжительность: 02:19:54-Перевод: Профессиональный (полное дублирование) BD EUR
Оригинальная аудиодорожка: английская
Cубтитры: русские, украинские, английские
Режиссер: Джеймс Ван / James Wan
В ролях: Вин Дизель, Пол Уокер, Джейсон Стэйтем, Мишель Родригес, Дуэйн Джонсон, Тайриз Гибсон, Лудакрис, Натали Эммануэль, Джордана Брюстер, Курт Рассел
Описание: Они покорили Токио и Рио, Лос-Анджелес и Лондон. Но мир больше не играет по их правилам. Зной арабских пустынь, неприлично высокие небоскребы, миллионы долларов на колесах и очень, очень знаменитый злодей. Скорость не знает границ.-
Сэмпл: скачать-Релиз от -
Автор рипа: Elheym
Качество: BDRip-AVC (источник: / Blu-ray EUR [FASTFURIOUS7_HDCLUB] / 1080p)
Контейнер: MKV
Видео: 1152x480 (2.40:1), 23.976 fps, MPEG-4 AVC, ~4500 kbps avg, 0.339 bit/pixel
Аудио #1: Русский: AC3, 5.1, 48 kHz, ~448 Кбит/с | Профессиональный (полное дублирование) BD EUR |
Аудио #2: Английский: AC3, 5.1, 48 kHz, ~448 Кбит/с | Оригинал |
Субтитры: русские (полные: BD, Матвеев; форсированные), украинские (полные), английские (полные, SDH, SDH цветные)
Главы: Присутствуют, сохранены оригинальные
MediaInfo
Уникальный идентификатор : 173818565642981709780379758878085453082 (0x82C43CF098F242EBA1D97A2E9F65951A)
Полное имя : Furious.7.Extended.Cut.2015.DUAL.BDRip-AVC.x264.AC3.-HQCLUB.mkv
Формат : Matroska
Версия формата : Version 2
Размер файла : 5,27 Гбайт
Продолжительность : 2 ч. 19 м.
Общий поток : 5393 Кбит/сек
Название фильма : Форсаж 7 / Furious 7 [Extended Cut] (2015) BDRip-AVC by Elheym [HQCLUB]
Дата кодирования : UTC 2015-08-02 15:54:03
Программа кодирования : mkvmerge v5.2.0 ('I can't explain') built on Dec 18 2011 18:12:03
Библиотека кодирования : libebml v1.2.3 + libmatroska v1.3.0
Attachements : Cover.jpg
Видео
Идентификатор : 1
Формат : AVC
Формат/Информация : Advanced Video Codec
Профиль формата : High@L4
Параметр CABAC формата : Да
Параметр ReFrames формата : 14 кадров
Идентификатор кодека : V_MPEG4/ISO/AVC
Продолжительность : 2 ч. 19 м.
Битрейт : 4500 Кбит/сек
Ширина : 1152 пикселя
Высота : 480 пикселей
Соотношение сторон : 2,40:1
Режим частоты кадров : Постоянный
Частота кадров : 23,976 кадра/сек
Цветовое пространство : YUV
Субдискретизация насыщенности : 4:2:0
Битовая глубина : 8 бит
Тип развёртки : Прогрессивная
Бит/(Пиксели*Кадры) : 0.339
Размер потока : 4,29 Гбайт (81%)
Заголовок : Форсаж 7 / Furious 7 [Extended Cut] (2015) BDRip-AVC by Elheym [HQCLUB]
Библиотека кодирования : x264 core 146 r0+2586 e393126 t_mod_Custom [8-bit@all X86_64]
Настройки программы : cabac=1 / ref=14 / deblock=1:-3:-2 / analyse=0x3:0x113 / me=umh / subme=11 / psy=1 / fade_compensate=0.00 / psy_rd=1.15:0.20 / mixed_ref=1 / me_range=32 / chroma_me=1 / trellis=2 / 8x8dct=1 / cqm=0 / deadzone=21,11 / fast_pskip=0 / chroma_qp_offset=-3 / threads=6 / lookahead_threads=2 / sliced_threads=0 / nr=0 / decimate=0 / interlaced=0 / bluray_compat=0 / constrained_intra=0 / fgo=0 / bframes=16 / b_pyramid=2 / b_adapt=2 / b_bias=0 / direct=3 / weightb=1 / open_gop=0 / weightp=2 / keyint=240 / keyint_min=23 / scenecut=40 / intra_refresh=0 / rc_lookahead=80 / rc=2pass / mbtree=0 / bitrate=4500 / ratetol=1.0 / qcomp=0.85 / qpmin=0:0:0 / qpmax=69:69:69 / qpstep=4 / cplxblur=20.0 / qblur=0.5 / vbv_maxrate=20000 / vbv_bufsize=25000 / nal_hrd=none / filler=0 / ip_ratio=1.40 / pb_ratio=1.30 / aq=2:0.60 / aq-sensitivity=15.00 / aq-factor=1.00:1.00:1.00 / aq2=0 / aq3=0 / zones=154009,158953,b=1.16/167714,171887,b=1.14/189050,201274,b=0.32
Язык : English
Default : Да
Forced : Нет
Аудио #1
Идентификатор : 2
Формат : AC-3
Формат/Информация : Audio Coding 3
Расширение режима : CM (complete main)
Параметр Endianness формата : Big
Идентификатор кодека : A_AC3
Продолжительность : 2 ч. 19 м.
Вид битрейта : Постоянный
Битрейт : 448 Кбит/сек
Каналы : 6 каналов
Расположение каналов : Front: L C R, Side: L R, LFE
Частота : 48,0 КГц
Метод сжатия : С потерями
Размер потока : 448 Мбайт (8%)
Заголовок : АС3 5.1 @ 448 kbps - Dub, BD EUR
Язык : Russian
Default : Нет
Forced : Нет
Аудио #2
Идентификатор : 3
Формат : AC-3
Формат/Информация : Audio Coding 3
Расширение режима : CM (complete main)
Параметр Endianness формата : Big
Идентификатор кодека : A_AC3
Продолжительность : 2 ч. 19 м.
Вид битрейта : Постоянный
Битрейт : 448 Кбит/сек
Каналы : 6 каналов
Расположение каналов : Front: L C R, Side: L R, LFE
Частота : 48,0 КГц
Метод сжатия : С потерями
Размер потока : 448 Мбайт (8%)
Заголовок : АС3 5.1 @ 448 kbps - Original
Язык : English
Default : Нет
Forced : Нет
Текст #1
Идентификатор : 4
Формат : UTF-8
Идентификатор кодека : S_TEXT/UTF8
Идентификатор кодека/Информация : UTF-8 Plain Text
Заголовок : Full, BD
Язык : Russian
Default : Нет
Forced : Нет
Текст #2
Идентификатор : 5
Формат : UTF-8
Идентификатор кодека : S_TEXT/UTF8
Идентификатор кодека/Информация : UTF-8 Plain Text
Заголовок : Full, Matveev
Язык : Russian
Default : Нет
Forced : Нет
Текст #3
Идентификатор : 6
Формат : UTF-8
Идентификатор кодека : S_TEXT/UTF8
Идентификатор кодека/Информация : UTF-8 Plain Text
Заголовок : Forced
Язык : Russian
Default : Нет
Forced : Нет
Текст #4
Идентификатор : 7
Формат : UTF-8
Идентификатор кодека : S_TEXT/UTF8
Идентификатор кодека/Информация : UTF-8 Plain Text
Заголовок : Full
Язык : Ukrainian
Default : Нет
Forced : Нет
Текст #5
Идентификатор : 8
Формат : UTF-8
Идентификатор кодека : S_TEXT/UTF8
Идентификатор кодека/Информация : UTF-8 Plain Text
Заголовок : Full
Язык : English
Default : Нет
Forced : Нет
Текст #6
Идентификатор : 9
Формат : UTF-8
Идентификатор кодека : S_TEXT/UTF8
Идентификатор кодека/Информация : UTF-8 Plain Text
Заголовок : SDH
Язык : English
Default : Нет
Forced : Нет
Текст #7
Идентификатор : 10
Формат : UTF-8
Идентификатор кодека : S_TEXT/UTF8
Идентификатор кодека/Информация : UTF-8 Plain Text
Заголовок : SDH, Colored
Язык : English
Default : Нет
Forced : Нет
Меню
00:00:00.000 : :Chapter 01
00:04:39.946 : :Chapter 02
00:11:29.480 : :Chapter 03
00:16:39.288 : :Chapter 04
00:25:54.051 : :Chapter 05
00:33:43.895 : :Chapter 06
00:41:44.585 : :Chapter 07
00:46:41.005 : :Chapter 08
00:52:10.710 : :Chapter 09
01:02:31.414 : :Chapter 10
01:06:16.679 : :Chapter 11
01:14:16.868 : :Chapter 12
01:22:34.032 : :Chapter 13
01:33:21.136 : :Chapter 14
01:38:27.484 : :Chapter 15
01:45:40.082 : :Chapter 16
01:53:54.452 : :Chapter 17
01:58:31.061 : :Chapter 18
02:06:19.863 : :Chapter 19
02:11:31.173 : :Chapter 20
02:19:54.593 : :Chapter 21
x264 log
x264 [info]: frame I:1603 Avg QP:14.37 size:103278
x264 [info]: frame P:59851 Avg QP:17.02 size: 41003
x264 [info]: frame B:139821 Avg QP:19.06 size: 14991
x264 [info]: consecutive B-frames: 8.0% 7.4% 14.4% 23.4% 17.1% 24.8% 3.1% 0.6% 0.4% 0.3% 0.1% 0.1% 0.1% 0.1% 0.0% 0.1% 0.1%
x264 [info]: ref P L0: 48.1% 11.0% 16.9% 6.0% 4.7% 3.0% 2.7% 1.6% 1.4% 1.1% 1.0% 0.8% 0.8% 0.7% 0.3% 0.0%
x264 [info]: ref B L0: 77.2% 11.2% 4.3% 2.1% 1.3% 1.1% 0.9% 0.6% 0.4% 0.3% 0.3% 0.2% 0.1%
x264 [info]: ref B L1: 93.7% 6.3%
Скриншоты Сравнения с исходником
Источник- -Рип-
Скачать

Скачать торрент!

Как скачивать? · Что такое торрент? · Рейтинг и ограничения

Сайт не распространяет и не хранит электронные версии произведений, а лишь предоставляет доступ к создаваемому пользователями каталогу ссылок на торрент-файлы, которые содержат только списки хеш-сумм

[Профиль] [ЛС]
Показать сообщения:    
Ответить на тему

Текущее время: Сегодня 12:33

Часовой пояс: GMT + 4



Вы не можете начинать темы
Вы не можете отвечать на сообщения
Вы не можете редактировать свои сообщения
Вы не можете удалять свои сообщения
Вы не можете голосовать в опросах
Вы не можете прикреплять файлы к сообщениям
Вы не можете скачивать файлы