Тварь Питера Бенчли / Peter Benchley\'s Creature (Стюарт Гиллард / Stuart Gillard) [1998, США, Канада, ужасы, фантастика, триллер, BDRip 720p] MVO (R5) + Original Eng + Sub Rus

Ответить на тему
 
Автор Сообщение

user ®

Стаж: 7 лет 7 месяцев

Сообщений: 20008

Пост Пост: #1 от 02-Авг-2015 00:15

[Цитировать]

Тварь Питера Бенчли / Peter Benchley's Creature
Страна: США, Канада
Жанр: ужасы, фантастика, триллер
Год выпуска: 1998
Продолжительность: 01:29:31 + 01:26:44
Перевод: Профессиональный (многоголосый закадровый)
Оригинальная аудиодорожка: английский
Cубтитры: русские
Режиссер: Стюарт Гиллард / Stuart Gillard
В ролях: Крэйг Т. Нельсон, Ким Кэтролл, Колм Фиор, Кресс Уильямс, Майкл Рейли Бурк, Майкл Мишель, Мэттью Кэри, Мэгалин Эчиканвоке, Блу Манкума, Джон Эйлуорд
Описание: В конце 60-х годов безумный профессор-генетик Крюгер задумал вывести двуногую акулу с инстинктом убийцы и разумом человека. Он сам стал первой жертвой своих экспериментов. Прошло 30 лет, и в мирную жизнь тихого острова в Карибском море ворвалось ужасное, никогда не виданное чудовище, наводя страх на все живое. Унаследовавшие лабораторию Крюгера молодые биологи Саймон и Аманда Чэйз должны остановить кровожадную «тварь».

Релиз:
Качество видео: BDRip 720p (Peter Benchley's Creature (1998) 1080p BD-Remux)
Формат видео: MKV
Видео: 1280x720 at 23.976 fps, x264@L4.1, 2pass, ~9250 kbps avg
Аудио 1: Russian: 48 kHz, AC3, 3/2 (L,C,R,l,r) + LFE ch, ~448.00 kbps avg |Многоголосый закадровый, DVD R5|
Аудио 2: English: 48 kHz, DTS, 3/2 (L,C,R,l,r) + LFE ch, ~1536.00 kbps avg
Субтитры: Russian (srt.)
Log
x264 [info]: frame I:801 Avg QP:14.55 size:151767
x264 [info]: frame P:27289 Avg QP:17.54 size: 71693
x264 [info]: frame B:100695 Avg QP:19.05 size: 42707
MediaInfo
MediaInfo 1
General
Unique ID : 240701944345876313148264899989366909190 (0xB515821B4846BEB8A456FC5292A82906)
Complete name : D:\Peter.Benchleys.Creature.1998.720p.BDRip.HDCLUB\Peter.Benchleys.Creature.1998.720p.BDRip.Rus.Eng.Part I.HDCLUB.mkv
Format : Matroska
Format version : Version 4 / Version 2
File size : 7.17 GiB
Duration : 1h 29mn
Overall bit rate : 11.5 Mbps
Encoded date : UTC 2015-06-14 20:34:10
Writing application : mkvmerge v7.9.0 ('Birds') 64bit
Writing library : libebml v1.3.1 + libmatroska v1.4.2
Attachements : cover
DURATION : 01:29:31.435000000
NUMBER_OF_FRAMES : 503572
NUMBER_OF_BYTES : 1013186932
_STATISTICS_WRITING_APP : mkvmerge v7.9.0 ('Birds') 64bit
_STATISTICS_WRITING_DATE_UT : 2015-06-14 20:34:10
_STATISTICS_TAGS : BPS DURATION NUMBER_OF_FRAMES NUMBER_OF_BYTES
Video
ID : 1
Format : AVC
Format/Info : Advanced Video Codec
Format profile : High@L4.1
Format settings, CABAC : Yes
Format settings, ReFrames : 9 frames
Codec ID : V_MPEG4/ISO/AVC
Duration : 1h 29mn
Bit rate : 9 500 Kbps
Width : 1 280 pixels
Height : 720 pixels
Display aspect ratio : 16:9
Frame rate mode : Constant
Frame rate : 23.976 fps
Color space : YUV
Chroma subsampling : 4:2:0
Bit depth : 8 bits
Scan type : Progressive
Bits/(Pixel*Frame) : 0.430
Stream size : 5.80 GiB (81%)
Title : Peter Benchley's Creature (1998) 720p BDRip
Writing library : x264 core 146 r2538kMod 121396c
Encoding settings : cabac=1 / ref=9 / deblock=1:-3:-3 / analyse=0x3:0x113 / me=umh / subme=10 / psy=1 / fade_compensate=0.00 / psy_rd=1.00:0.00 / mixed_ref=1 / me_range=64 / chroma_me=1 / trellis=2 / 8x8dct=1 / cqm=0 / deadzone=21,11 / fast_pskip=0 / chroma_qp_offset=-2 / threads=12 / lookahead_threads=3 / sliced_threads=0 / nr=0 / decimate=0 / interlaced=0 / bluray_compat=0 / constrained_intra=0 / fgo=0 / bframes=12 / b_pyramid=2 / b_adapt=2 / b_bias=0 / direct=3 / weightb=1 / open_gop=0 / weightp=2 / keyint=240 / keyint_min=23 / scenecut=40 / intra_refresh=0 / rc_lookahead=80 / rc=2pass / mbtree=1 / bitrate=9500 / ratetol=1.0 / qcomp=0.60 / qpmin=0 / qpmax=69 / qpstep=4 / cplxblur=20.0 / qblur=0.5 / vbv_maxrate=50000 / vbv_bufsize=62500 / nal_hrd=none / filler=0 / ip_ratio=1.40 / aq=1:1.00
Language : English
Default : Yes
Forced : No
DURATION : 01:29:31.408000000
NUMBER_OF_FRAMES : 128785
NUMBER_OF_BYTES : 6378370087
_STATISTICS_WRITING_APP : mkvmerge v7.9.0 ('Birds') 64bit
_STATISTICS_WRITING_DATE_UT : 2015-06-14 20:34:10
_STATISTICS_TAGS : BPS DURATION NUMBER_OF_FRAMES NUMBER_OF_BYTES
Audio #1
ID : 2
Format : AC-3
Format/Info : Audio Coding 3
Mode extension : CM (complete main)
Format settings, Endianness : Big
Codec ID : A_AC3
Duration : 1h 29mn
Bit rate mode : Constant
Bit rate : 448 Kbps
Channel(s) : 6 channels
Channel positions : Front: L C R, Side: L R, LFE
Sampling rate : 48.0 KHz
Bit depth : 16 bits
Compression mode : Lossy
Stream size : 287 MiB (4%)
Title : [DVD R5] Mvo - AC3 5.1 @ 448 kbps
Language : Russian
Default : Yes
Forced : No
Audio #2
ID : 3
Format : DTS
Format/Info : Digital Theater Systems
Mode : 16
Format settings, Endianness : Big
Codec ID : A_DTS
Duration : 1h 29mn
Bit rate mode : Constant
Bit rate : 1 509 Kbps
Channel(s) : 6 channels
Channel positions : Front: L C R, Side: L R, LFE
Sampling rate : 48.0 KHz
Bit depth : 24 bits
Compression mode : Lossy
Stream size : 966 MiB (13%)
Title : [Original from BD] DTS 5.1 @ 1536 kbps
Language : English
Default : No
Forced : No
Text
ID : 4
Format : UTF-8
Codec ID : S_TEXT/UTF8
Codec ID/Info : UTF-8 Plain Text
Title : [SRT/UTF8] Full
Language : Russian
Default : No
Forced : No
Menu
00:00:00.000 : :00:00:00.000
00:00:10.926 : :00:00:10.926
00:11:44.451 : :00:11:44.451
00:24:12.364 : :00:24:12.364
00:37:13.105 : :00:37:13.105
00:50:28.942 : :00:50:28.942
01:01:44.242 : :01:01:44.242
01:11:40.921 : :01:11:40.921
01:21:27.881 : :01:21:27.881
01:29:29.335 : :01:29:29.335
MediaInfo 2
General
Unique ID : 210746229389253313886690205343328435700 (0x9E8C3F549B53708BA629DF00C1E2FDF4)
Complete name : D:\Peter.Benchleys.Creature.1998.720p.BDRip.HDCLUB\Peter.Benchleys.Creature.1998.720p.BDRip.Rus.Eng.Part II.HDCLUB.mkv
Format : Matroska
Format version : Version 4 / Version 2
File size : 6.64 GiB
Duration : 1h 26mn
Overall bit rate : 11.0 Mbps
Encoded date : UTC 2015-06-15 10:55:15
Writing application : mkvmerge v7.9.0 ('Birds') 64bit
Writing library : libebml v1.3.1 + libmatroska v1.4.2
Attachements : cover
DURATION : 01:22:23.569000000
NUMBER_OF_FRAMES : 540
NUMBER_OF_BYTES : 34288
_STATISTICS_WRITING_APP : mkvmerge v7.9.0 ('Birds') 64bit
_STATISTICS_WRITING_DATE_UT : 2015-06-15 10:55:15
_STATISTICS_TAGS : BPS DURATION NUMBER_OF_FRAMES NUMBER_OF_BYTES
Video
ID : 1
Format : AVC
Format/Info : Advanced Video Codec
Format profile : High@L4.1
Format settings, CABAC : Yes
Format settings, ReFrames : 9 frames
Codec ID : V_MPEG4/ISO/AVC
Duration : 1h 26mn
Bit rate : 9 000 Kbps
Width : 1 280 pixels
Height : 720 pixels
Display aspect ratio : 16:9
Frame rate mode : Constant
Frame rate : 23.976 fps
Color space : YUV
Chroma subsampling : 4:2:0
Bit depth : 8 bits
Scan type : Progressive
Bits/(Pixel*Frame) : 0.407
Stream size : 5.32 GiB (80%)
Title : Peter Benchley's Creature (1998) 720p BDRip
Writing library : x264 core 146 r2538kMod 121396c
Encoding settings : cabac=1 / ref=9 / deblock=1:-3:-3 / analyse=0x3:0x113 / me=umh / subme=10 / psy=1 / fade_compensate=0.00 / psy_rd=1.00:0.00 / mixed_ref=1 / me_range=64 / chroma_me=1 / trellis=2 / 8x8dct=1 / cqm=0 / deadzone=21,11 / fast_pskip=0 / chroma_qp_offset=-2 / threads=12 / lookahead_threads=3 / sliced_threads=0 / nr=0 / decimate=0 / interlaced=0 / bluray_compat=0 / constrained_intra=0 / fgo=0 / bframes=12 / b_pyramid=2 / b_adapt=2 / b_bias=0 / direct=3 / weightb=1 / open_gop=0 / weightp=2 / keyint=240 / keyint_min=23 / scenecut=40 / intra_refresh=0 / rc_lookahead=80 / rc=2pass / mbtree=1 / bitrate=9000 / ratetol=1.0 / qcomp=0.60 / qpmin=0 / qpmax=69 / qpstep=4 / cplxblur=20.0 / qblur=0.5 / vbv_maxrate=50000 / vbv_bufsize=62500 / nal_hrd=none / filler=0 / ip_ratio=1.40 / aq=1:1.00
Language : English
Default : Yes
Forced : No
DURATION : 01:26:44.241000000
NUMBER_OF_FRAMES : 124777
NUMBER_OF_BYTES : 5854826319
_STATISTICS_WRITING_APP : mkvmerge v7.9.0 ('Birds') 64bit
_STATISTICS_WRITING_DATE_UT : 2015-06-15 10:55:15
_STATISTICS_TAGS : BPS DURATION NUMBER_OF_FRAMES NUMBER_OF_BYTES
Audio #1
ID : 2
Format : AC-3
Format/Info : Audio Coding 3
Mode extension : CM (complete main)
Format settings, Endianness : Big
Codec ID : A_AC3
Duration : 1h 26mn
Bit rate mode : Constant
Bit rate : 448 Kbps
Channel(s) : 6 channels
Channel positions : Front: L C R, Side: L R, LFE
Sampling rate : 48.0 KHz
Bit depth : 16 bits
Compression mode : Lossy
Stream size : 278 MiB (4%)
Title : [DVD R5] Mvo - AC3 5.1 @ 448 kbps
Language : Russian
Default : Yes
Forced : No
Audio #2
ID : 3
Format : DTS
Format/Info : Digital Theater Systems
Mode : 16
Format settings, Endianness : Big
Codec ID : A_DTS
Duration : 1h 26mn
Bit rate mode : Constant
Bit rate : 1 509 Kbps
Channel(s) : 6 channels
Channel positions : Front: L C R, Side: L R, LFE
Sampling rate : 48.0 KHz
Bit depth : 24 bits
Compression mode : Lossy
Stream size : 936 MiB (14%)
Title : [Original from BD] DTS 5.1 @ 1536 kbps
Language : English
Default : No
Forced : No
Text
ID : 4
Format : UTF-8
Codec ID : S_TEXT/UTF8
Codec ID/Info : UTF-8 Plain Text
Title : [SRT/UTF8] Full
Language : Russian
Default : Yes
Forced : No
Menu
00:00:00.000 : :00:00:00.000
00:00:10.926 : :00:00:10.926
00:09:44.457 : :00:09:44.457
00:18:47.459 : :00:18:47.459
00:27:56.590 : :00:27:56.590
00:37:11.353 : :00:37:11.353
00:47:11.036 : :00:47:11.036
00:58:36.429 : :00:58:36.429
01:11:58.479 : :01:11:58.479
01:26:43.167 : :01:26:43.167
Скриншоты
Скачать

Скачать торрент!

Как скачивать? · Что такое торрент? · Рейтинг и ограничения

Сайт не распространяет и не хранит электронные версии произведений, а лишь предоставляет доступ к создаваемому пользователями каталогу ссылок на торрент-файлы, которые содержат только списки хеш-сумм

[Профиль] [ЛС]
Показать сообщения:    
Ответить на тему

Текущее время: Сегодня 20:04

Часовой пояс: GMT + 4



Вы не можете начинать темы
Вы не можете отвечать на сообщения
Вы не можете редактировать свои сообщения
Вы не можете удалять свои сообщения
Вы не можете голосовать в опросах
Вы не можете прикреплять файлы к сообщениям
Вы не можете скачивать файлы