Азартная игра / Blue Chips (Уильям Фридкин / William Friedkin) [1994, США, Спортивная драма, WEB-DL 720p] DVO (Премьер Видео) + Original (Eng) + Sub (Eng)

Ответить на тему
 
Автор Сообщение

user ®

Стаж: 7 лет 7 месяцев

Сообщений: 20008

Пост Пост: #1 от 02-Авг-2015 00:15

[Цитировать]

Азартная игра / Blue Chips
Страна: США
Жанр: Спортивная драма
Год выпуска: 1994
Продолжительность: 01:47:52
Перевод: Профессиональный (двухголосый закадровый)
Cубтитры: английские
Оригинальная аудиодорожка: английский
Режиссер: Уильям Фридкин / William Friedkin
В ролях: Ник Нолти, Мэри МакДоннел, Эд О'Нил, Дж. Т. Уолш, Боб Коузи, Энферни «Пенни» Хардуэй, Шакил ОНил, Ларри Берд и т.д.
Описание:
Тренер баскетбольной команды оказывается перед дилеммой: игра его команды в прежнем составе ведет к проигрышу, а привлечение новых игроков невозможно без нарушения существующих правил.
Доп. информация:
WEB-DL 720p@hdclub (СЭМПЛ)
Перевод студии Премьер Видео с лицензионной Hi-Fi видеокассеты из личных архивов. Роли озвучивали Вадим Андреев и Наталья Казначеева.

Отчет MediaInfo
General
Unique ID : 176519518990245031213903824212002923074 (0x84CC6C38A31CAFA4A5BF74FD0868E242)
Complete name : G:\Blue.Chips.1994.720p.WEB-DL.Rus.Eng.mkv
Format : Matroska
Format version : Version 4 / Version 2
File size : 3.64 GiB
Duration : 1h 47mn
Overall bit rate : 4 836 Kbps
Encoded date : UTC 2015-07-26 17:35:00
Writing application : mkvmerge v7.0.0 ('Where We Going') 32bit built on Jun 9 2014 15:08:34
Writing library : libebml v1.3.0 + libmatroska v1.4.1
DURATION : 01:47:52.320000000
NUMBER_OF_FRAMES : 202260
NUMBER_OF_BYTES : 155335680
_STATISTICS_WRITING_APP : mkvmerge v7.0.0 ('Where We Going') 32bit built on Jun 9 2014 15:08:34
_STATISTICS_WRITING_DATE_UTC : 2015-07-26 17:35:00
_STATISTICS_TAGS : BPS DURATION NUMBER_OF_FRAMES NUMBER_OF_BYTES
Video
ID : 1
Format : AVC
Format/Info : Advanced Video Codec
Format profile : High@L3.1
Format settings, CABAC : No
Format settings, ReFrames : 2 frames
Codec ID : V_MPEG4/ISO/AVC
Duration : 1h 47mn
Bit rate : 4 164 Kbps
Width : 1 278 pixels
Height : 720 pixels
Display aspect ratio : 16:9
Frame rate mode : Constant
Frame rate : 23.976 fps
Color space : YUV
Chroma subsampling : 4:2:0
Bit depth : 8 bits
Scan type : Progressive
Bits/(Pixel*Frame) : 0.189
Stream size : 3.14 GiB (86%)
Title : Blue.Chips.1994.720p.WEB-DL
Language : English
Default : Yes
Forced : No
Color primaries : BT.709
Transfer characteristics : BT.709
Matrix coefficients : BT.709
Audio #1
ID : 2
Format : AC-3
Format/Info : Audio Coding 3
Mode extension : CM (complete main)
Format settings, Endianness : Big
Codec ID : A_AC3
Duration : 1h 47mn
Bit rate mode : Constant
Bit rate : 192 Kbps
Channel count : 2 channels
Channel positions : Front: L R
Sampling rate : 48.0 KHz
Bit depth : 16 bits
Compression mode : Lossy
Stream size : 148 MiB (4%)
Title : DVO
Language : Russian
Default : Yes
Forced : No
Audio #2
ID : 3
Format : AC-3
Format/Info : Audio Coding 3
Mode extension : CM (complete main)
Format settings, Endianness : Big
Codec ID : A_AC3
Duration : 1h 47mn
Bit rate mode : Constant
Bit rate : 384 Kbps
Channel count : 6 channels
Channel positions : Front: L C R, Side: L R, LFE
Sampling rate : 48.0 KHz
Bit depth : 16 bits
Compression mode : Lossy
Stream size : 296 MiB (8%)
Title : English
Language : English
Default : No
Forced : No
Text
ID : 4
Format : UTF-8
Codec ID : S_TEXT/UTF8
Codec ID/Info : UTF-8 Plain Text
Title : English
Language : English
Default : No
Forced : No
Качество: WEB-DL
Формат: MKV
Видео кодек: H.264
Аудио кодек: AC3
Видео: 1278x720; 23.976 fps, 4164 kbps
Аудио:
1 - Dolby AC3; Rus; 48000Hz; 2ch; 192kbps [Премьер Видео] VHSRip
2 - Dolby AC3; Eng; 48000Hz; 6ch; 384kbps [оригинал]
скриншоты
Скачать

Скачать торрент!

Как скачивать? · Что такое торрент? · Рейтинг и ограничения

Сайт не распространяет и не хранит электронные версии произведений, а лишь предоставляет доступ к создаваемому пользователями каталогу ссылок на торрент-файлы, которые содержат только списки хеш-сумм

[Профиль] [ЛС]
Показать сообщения:    
Ответить на тему

Текущее время: Сегодня 03:10

Часовой пояс: GMT + 4



Вы не можете начинать темы
Вы не можете отвечать на сообщения
Вы не можете редактировать свои сообщения
Вы не можете удалять свои сообщения
Вы не можете голосовать в опросах
Вы не можете прикреплять файлы к сообщениям
Вы не можете скачивать файлы