Дальняя дорога / The Longest Ride (Джордж Тиллман мл. / George Tillman Jr.) [2015, драма, мелодрама, BDRip-AVC] Dub + Original (Eng) + Subs (Rus., Ukr., Eng.)

Ответить на тему
 
Автор Сообщение

user ®

Стаж: 7 лет 7 месяцев

Сообщений: 20008

Пост Пост: #1 от 02-Авг-2015 00:15

[Цитировать]

-Дальняя дорога / The Longest Ride- Год выпуска: 2015
Страна: США
Жанр: драма, мелодрама
Продолжительность: 02:08:19
Перевод: Профессиональный (полное дублирование) |Лицензия|
Русские субтитры: есть-Режиссер: Джордж Тиллман мл. / George Tillman Jr.-В ролях: Скотт Иствуд (Luke Collins), Бритт Робертсон (Sophia Danko), Алан Алда (Ira Levinson), Джек Хьюстон (Young Ira), Уна Чаплин (Young Ruth), Мелисса Бенойст (Marcia), Лолита Давидович (Kate Collins), Элеа Оберон (Mrs. Pfeffer), Кейт Форбс (Ira's Mother), Тьяго Риани (Luiz), Дэнни Винсон (Larry Till), Хейли Ловитт (Rodeo Girl / Dancer)-Описание: Люк - экс-чемпион по родео, раздумывающий над возвращением в спорт. София - выпускница колледжа, получившая заманчивое предложение о работе в сфере искусства в Нью-Йорке. В то время как молодые люди пытаются сделать нелегкий выбор между чувствами и мечтами, жизнь сталкивает их со стариком Айрой. Воспоминания нового друга о его полувековых отношениях с женой вдохновляют Софию и Люка на главные решения в их жизни. Два поколения, две истории, вечная любовь.-Кинопоиск: 7.4/10 || IMDB: 7.2/10-Релиз от: -Автор рипа: potroks-Качество: BDRip-AVC [Blu-ray Disc | 1080p | HDCLUB]
Формат: MKV
Видео кодек: H.264
Аудио кодек: AC3
Видео: 1024x428 (2.40:1), 1536 kbps, 23,976 fps, 0,146 bpp
Аудио №1: AC3 / 5.1 / 48 kHz / 448 kbps / 16 bit | RUS
Аудио №2: AC3 / 5.1 / 48 kHz / 448 kbps / 16 bit | ENG
Субтитры: русские (Forced), русские, украинские, английские (Full), английские (SDH), английские (SDH-Colored)
- -MediaInfo
Dal'nyaya.Doroga.2015.DUAL.BDRip-AVC.-HELLYWOOD.mkv
Format : Matroska
Format version : Version 4 / Version 2
File size : 2.18 GiB
Duration : 2h 8mn
Overall bit rate : 2 433 Kbps
Movie name : The Longest Ride (2015) - HELLYWOOD
Encoded date : UTC 2015-08-01 06:15:15
Writing application : mkvmerge v5.9.0 ('On The Loose') built on Dec 15 2012 16:39:58
Writing library : libebml v1.3.0 + libmatroska v1.4.0
Video
ID : 1
Format : AVC
Format/Info : Advanced Video Codec
Format profile : High@L4.1
Format settings, CABAC : Yes
Format settings, ReFrames : 12 frames
Codec ID : V_MPEG4/ISO/AVC
Duration : 2h 8mn
Bit rate : 1 536 Kbps
Width : 1 024 pixels
Height : 428 pixels
Display aspect ratio : 2.40:1
Frame rate mode : Constant
Frame rate : 23.976 fps
Color space : YUV
Chroma subsampling : 4:2:0
Bit depth : 8 bits
Scan type : Progressive
Bits/(Pixel*Frame) : 0.146
Stream size : 1.33 GiB (61%)
Title : potroks
Writing library : x264 core 146 r2538 121396c
Encoding settings : cabac=1 / ref=12 / deblock=1:-2:-2 / analyse=0x3:0x113 / me=umh / subme=11 / psy=1 / psy_rd=1.05:0.10 / mixed_ref=1 / me_range=48 / chroma_me=1 / trellis=2 / 8x8dct=1 / cqm=0 / deadzone=21,11 / fast_pskip=0 / chroma_qp_offset=-3 / threads=9 / lookahead_threads=2 / sliced_threads=0 / nr=0 / decimate=0 / interlaced=0 / bluray_compat=0 / constrained_intra=0 / bframes=13 / b_pyramid=2 / b_adapt=2 / b_bias=0 / direct=3 / weightb=1 / open_gop=0 / weightp=2 / keyint=250 / keyint_min=23 / scenecut=40 / intra_refresh=0 / rc_lookahead=60 / rc=2pass / mbtree=0 / bitrate=1536 / ratetol=1.0 / qcomp=0.70 / qpmin=0 / qpmax=69 / qpstep=4 / cplxblur=20.0 / qblur=0.5 / vbv_maxrate=14000 / vbv_bufsize=14000 / nal_hrd=none / filler=0 / ip_ratio=1.35 / pb_ratio=1.25 / aq=1:0.80
Language : English
Default : Yes
Forced : No
Audio #1
ID : 2
Format : AC-3
Format/Info : Audio Coding 3
Mode extension : CM (complete main)
Format settings, Endianness : Big
Codec ID : A_AC3
Duration : 2h 8mn
Bit rate mode : Constant
Bit rate : 448 Kbps
Channel(s) : 6 channels
Channel positions : Front: L C R, Side: L R, LFE
Sampling rate : 48.0 KHz
Bit depth : 16 bits
Compression mode : Lossy
Stream size : 411 MiB (18%)
Title : Dub | DD 5.1 @ 448 kbps - Blu-Ray EUR
Language : Russian
Default : Yes
Forced : No
Audio #2
ID : 3
Format : AC-3
Format/Info : Audio Coding 3
Mode extension : CM (complete main)
Format settings, Endianness : Big
Codec ID : A_AC3
Duration : 2h 8mn
Bit rate mode : Constant
Bit rate : 448 Kbps
Channel(s) : 6 channels
Channel positions : Front: L C R, Side: L R, LFE
Sampling rate : 48.0 KHz
Bit depth : 16 bits
Compression mode : Lossy
Stream size : 411 MiB (18%)
Title : Original | DD 5.1 @ 448 kbps
Language : English
Default : No
Forced : No
Text #1
ID : 4
Format : UTF-8
Codec ID : S_TEXT/UTF8
Codec ID/Info : UTF-8 Plain Text
Title : Forced
Language : Russian
Default : Yes
Forced : No
Text #2
ID : 5
Format : UTF-8
Codec ID : S_TEXT/UTF8
Codec ID/Info : UTF-8 Plain Text
Language : Russian
Default : No
Forced : No
Text #3
ID : 6
Format : UTF-8
Codec ID : S_TEXT/UTF8
Codec ID/Info : UTF-8 Plain Text
Language : Ukrainian
Default : No
Forced : No
Text #4
ID : 7
Format : UTF-8
Codec ID : S_TEXT/UTF8
Codec ID/Info : UTF-8 Plain Text
Title : Full
Language : English
Default : No
Forced : No
Text #5
ID : 8
Format : UTF-8
Codec ID : S_TEXT/UTF8
Codec ID/Info : UTF-8 Plain Text
Title : SDH
Language : English
Default : No
Forced : No
Text #6
ID : 9
Format : UTF-8
Codec ID : S_TEXT/UTF8
Codec ID/Info : UTF-8 Plain Text
Title : SDH-Colored
Language : English
Default : No
Forced : No
Menu
00:00:00.000 : en:(01)00:00:00:000
00:02:13.133 : en:(02)00:02:13:133
00:07:16.310 : en:(03)00:07:16:310
00:10:36.302 : en:(04)00:10:36:302
00:12:44.304 : en:(05)00:12:44:304
00:15:41.398 : en:(06)00:15:41:398
00:20:09.540 : en:(07)00:20:09:540
00:23:00.545 : en:(08)00:23:00:545
00:26:04.354 : en:(09)00:26:04:354
00:29:09.998 : en:(10)00:29:09:998
00:33:01.688 : en:(11)00:33:01:688
00:37:16.233 : en:(12)00:37:16:233
00:44:09.103 : en:(13)00:44:09:103
00:48:59.478 : en:(14)00:48:59:478
00:53:24.034 : en:(15)00:53:24:034
00:57:33.115 : en:(16)00:57:33:115
01:01:40.822 : en:(17)01:01:40:822
01:05:01.521 : en:(18)01:05:01:521
01:09:36.505 : en:(19)01:09:36:505
01:11:59.648 : en:(20)01:11:59:648
01:16:15.988 : en:(21)01:16:15:988
01:20:55.015 : en:(22)01:20:55:015
01:25:01.887 : en:(23)01:25:01:887
01:29:15.140 : en:(24)01:29:15:140
01:32:49.396 : en:(25)01:32:49:396
01:37:15.621 : en:(26)01:37:15:621
01:39:56.614 : en:(27)01:39:56:614
01:42:07.912 : en:(28)01:42:07:912
01:45:21.064 : en:(29)01:45:21:064
01:52:07.386 : en:(30)01:52:07:386
01:57:40.845 : en:(31)01:57:40:845
02:02:00.313 : en:(32)02:02:00:313
02:08:17.898 : en:(33)02:08:17:898

-
Скриншоты -
Скачать

Скачать торрент!

Как скачивать? · Что такое торрент? · Рейтинг и ограничения

Сайт не распространяет и не хранит электронные версии произведений, а лишь предоставляет доступ к создаваемому пользователями каталогу ссылок на торрент-файлы, которые содержат только списки хеш-сумм

[Профиль] [ЛС]
Показать сообщения:    
Ответить на тему

Текущее время: Сегодня 22:20

Часовой пояс: GMT + 4



Вы не можете начинать темы
Вы не можете отвечать на сообщения
Вы не можете редактировать свои сообщения
Вы не можете удалять свои сообщения
Вы не можете голосовать в опросах
Вы не можете прикреплять файлы к сообщениям
Вы не можете скачивать файлы