28 дней спустя / 28 Days Later... (Дэнни Бойл / Danny Boyle) [2002, Великобритания, ужасы, фантастика, триллер, BDRip 720p] Dub + 2x MVO + 2x AVO + Sub Rus, Ukr, Eng + Original Eng

Ответить на тему
 
Автор Сообщение

user ®

Стаж: 7 лет 7 месяцев

Сообщений: 20008

Пост Пост: #1 от 01-Авг-2015 21:09

[Цитировать]

28 дней спустя / 28 Days Later...-Day 1: Exposure - Day 3: Infection - Day 8: Epidemic - Day 15: Evacuation - Day 20: Devastation- Страна: Великобритания
Студия: British Film Council, DNA Films
Жанр: ужасы, фантастика, триллер
Год выпуска: 2002
Продолжительность: 01:53:07-Перевод: профессиональный (дублированный), профессиональный (многоголосый), авторский (одноголосый)
Оригинальная аудиодорожка: английский
Cубтитры: русские (Медиалайн, Позитив, Киномания, Гоблин), русские (комментарии), украинские, английские-Режиссер: Дэнни Бойл / Danny Boyle
В ролях: Киллиан Мёрфи, Наоми Харрис, Брендан Глисон, Меган Бернс, Кристофер Экклстон, Алекс Палмер, Бинду Де Стоппани, Юкка Хилтунен, Дэвид Шнайдер-Описание: Группа «зеленых» экстремистов вторгается в центр исследования приматов и выпускает из секретной научной лаборатории обезьяну, зараженную вирусом неудержимой агрессии. Смертельный вирус, передающийся через кровь за считанные секунды, приводит к мгновенному заражению, и, соприкасаясь с любым живым существом, превращает его в кровожадного монстра.
Через 4 недели вся Англия охвачена страшной эпидемией: многие люди эвакуируются, другие ищут безопасные места, в надежде спастись. Те, кому посчастливилось не заразиться, вместе с группой военных прячутся в заброшенном доме. Вместе им предстоит разобраться в ситуации и попытаться ее исправить…-Кинопоиск: 7.561 (26 479)
IMDb: 7.60 (136 388)-Качество: BDRip 720p
Контейнер: MKV
Видеокодек: H.264
Аудиокодек: AC3, DTS-Видео: 1280x694, 7200 Кбит/сек, 23.976 кадр/сек
Аудио 1: DTS, 768 Кбит/сек, 6 каналов, 48.0 КГц - дубляж (Лицензия, Невафильм)
Аудио 2: AC3, 448 Кбит/сек, 6 каналов, 48.0 КГц - многоголосый (Позитив-Мультимедиа)
Аудио 3: AC3, 384 Кбит/сек, 6 каналов, 48.0 КГц - многоголосый (Киномания)
Аудио 4: AC3, 384 Кбит/сек, 6 каналов, 48.0 КГц - авторский (Сергей Рябов)
Аудио 5: DTS, 1536 Кбит/сек, 6 каналов, 48.0 КГц - авторский (Дмитрий «Гоблин» Пучков)
Аудио 6: DTS, 1536 Кбит/сек, 6 каналов, 48.0 КГц - оригинал (английский)
Аудио 7: AC3, 224 Кбит/сек, 2 канала, 48.0 КГц - комментарии режиссера Д.Бойла и сценариста А.Гарленда (английский)
Формат субтитров: softsub (SRT)
О релизе
  • Рип сделан с CEE издания, у которого отсутствует двухфреймовый глич. Оттуда же были взяты дубляж и русские субтитры на комментарии создателей.
  • Позитив, Киномания, Рябов, Гоблин, русские, английские субтитры и главы взяты взяты с ремукса MaLLIeHbKи. За что ей БОЛЬШОЕ спасибо.
  • За украинские субтитры спасибо сайту hurtom.
  • Ну а в целом, перед вами "один из ярчайших представителей зомби-хорроров, да ещё и с неслабой драматичной обвязкой (c)", отличным саундтреком и "впечатляющим" качеством HD
Скриншоты #1 Скриншоты #2
-------------------------- BD -------------------------------------------------- ENCODE ---------------------------




x264
---[NoImage] x264 [info]: frame I:1059 Avg QP:16.85 size:122126
---[NoImage] x264 [info]: frame P:35054 Avg QP:18.80 size: 64226
---[NoImage] x264 [info]: frame B:126626 Avg QP:21.23 size: 29436
---[NoImage] x264 [info]: consecutive B-frames: 2.8% 3.2% 5.2% 16.8% 15.7% 39.6% 8.6% 2.9% 2.0% 1.5% 0.6% 0.6% 0.5%
---[NoImage] x264 [info]: mb I I16..4: 10.0% 67.6% 22.5%
---[NoImage] x264 [info]: mb P I16..4: 4.0% 31.5% 2.9% P16..4: 26.5% 20.2% 9.6% 0.0% 0.0% skip: 5.3%
---[NoImage] x264 [info]: mb B I16..4: 0.3% 3.2% 0.2% B16..8: 43.0% 16.9% 4.3% direct:10.4% skip:21.5% L0:43.6% L1:40.7% BI:15.7%
---[NoImage] x264 [info]: 8x8 transform intra:81.9% inter:59.6%
---[NoImage] x264 [info]: direct mvs spatial:33.4% temporal:66.6%
---[NoImage] x264 [info]: coded y,uvDC,uvAC intra: 87.7% 73.6% 36.8% inter: 48.2% 38.5% 5.6%
---[NoImage] x264 [info]: i16 v,h,dc,p: 67% 10% 15% 8%
---[NoImage] x264 [info]: i8 v,h,dc,ddl,ddr,vr,hd,vl,hu: 13% 7% 12% 9% 12% 13% 11% 12% 11%
---[NoImage] x264 [info]: i4 v,h,dc,ddl,ddr,vr,hd,vl,hu: 15% 7% 6% 10% 14% 15% 11% 12% 11%
---[NoImage] x264 [info]: i8c dc,h,v,p: 47% 23% 20% 11%
---[NoImage] x264 [info]: Weighted P-Frames: Y:17.8% UV:11.4%
---[NoImage] x264 [info]: ref P L0: 34.9% 7.6% 21.5% 10.0% 9.0% 6.3% 6.2% 3.7% 0.7% 0.1%
---[NoImage] x264 [info]: ref B L0: 64.3% 16.5% 8.2% 4.9% 3.5% 1.8% 0.8%
---[NoImage] x264 [info]: ref B L1: 89.3% 10.7%
---[NoImage] x264 [info]: kb/s:7199.06
---[NoImage] encoded 162739 frames, 3.57 fps, 7199.07 kb/s
МедиИнфо
Общее
Уникальный идентификатор : 173372560664550854170638633039763196587 (0x826E573257562059B4D404052D11CAAB)
Полное имя : T:\28.Days.Later.2002.BDRip.720p.Rus.Eng.mkv
Формат : Matroska
Версия формата : Version 2
Размер файла : 9,81 Гбайт
Продолжительность : 1 ч. 53 м.
Общий поток : 12,4 Мбит/сек
Дата кодирования : UTC 2011-12-13 09:16:08
Программа кодирования : mkvmerge v4.6.0 ('Still Crazy After All These Years') сборка от Mar 13 2011 18:33:29
Библиотека кодирования : libebml v1.2.0 + libmatroska v1.1.0
Видео
Идентификатор : 1
Формат : AVC
Формат/Информация : Advanced Video Codec
Профиль формата : High@L4.1
Параметр CABAC формата : Да
Параметр ReFrames формата : 8 кадров
Идентификатор кодека : V_MPEG4/ISO/AVC
Продолжительность : 1 ч. 53 м.
Битрейт : 7200 Кбит/сек
Ширина : 1280 пикселей
Высота : 694 пикселя
Соотношение сторон : 1,85:1
Режим частоты кадров : Постоянный
Частота кадров : 23,976 кадра/сек
Цветовое пространство : YUV
Субдискретизация насыщенности : 4:2:0
Битовая глубина : 8 бит
Тип развёртки : Прогрессивная
Бит/(Пиксели*Кадры) : 0.338
Размер потока : 5,49 Гбайт (56%)
Библиотека кодирования : x264 core 120 r2119 0637cd6
Настройки программы : cabac=1 / ref=8 / deblock=1:-3:-3 / analyse=0x3:0x113 / me=umh / subme=10 / psy=1 / psy_rd=0.90:0.20 / mixed_ref=1 / me_range=48 / chroma_me=1 / trellis=2 / 8x8dct=1 / cqm=0 / deadzone=21,11 / fast_pskip=0 / chroma_qp_offset=-3 / threads=6 / sliced_threads=0 / nr=0 / decimate=0 / interlaced=0 / bluray_compat=0 / constrained_intra=0 / bframes=12 / b_pyramid=2 / b_adapt=2 / b_bias=0 / direct=2 / weightb=1 / open_gop=0 / weightp=2 / keyint=250 / keyint_min=23 / scenecut=40 / intra_refresh=0 / rc=2pass / mbtree=0 / bitrate=7200 / ratetol=1.0 / qcomp=0.60 / qpmin=10 / qpmax=51 / qpstep=4 / cplxblur=20.0 / qblur=0.5 / ip_ratio=1.40 / pb_ratio=1.30 / aq=1:0.80
Язык : English
Default : Да
Forced : Нет
Аудио #1
Идентификатор : 2
Формат : DTS
Формат/Информация : Digital Theater Systems
Режим : 16
Параметр Endianness формата : Big
Идентификатор кодека : A_DTS
Продолжительность : 1 ч. 53 м.
Вид битрейта : Постоянный
Битрейт : 768 Кбит/сек
Каналы : 6 каналов
Расположение каналов : Front: L C R, Side: L R, LFE
Частота : 48,0 КГц
Битовая глубина : 24 бит
Метод сжатия : С потерями
Задержка видео : 11 мс.
Размер потока : 622 Мбайт (6%)
Заголовок : Дубляж
Язык : Russian
Default : Да
Forced : Нет
Аудио #2
Идентификатор : 3
Формат : AC-3
Формат/Информация : Audio Coding 3
Расширение режима : CM (complete main)
Параметр Endianness формата : Big
Идентификатор кодека : A_AC3
Продолжительность : 1 ч. 53 м.
Вид битрейта : Постоянный
Битрейт : 448 Кбит/сек
Каналы : 6 каналов
Расположение каналов : Front: L C R, Side: L R, LFE
Частота : 48,0 КГц
Битовая глубина : 16 бит
Метод сжатия : С потерями
Размер потока : 363 Мбайт (4%)
Заголовок : Позитив
Язык : Russian
Default : Нет
Forced : Нет
Аудио #3
Идентификатор : 4
Формат : AC-3
Формат/Информация : Audio Coding 3
Расширение режима : CM (complete main)
Параметр Endianness формата : Big
Идентификатор кодека : A_AC3
Продолжительность : 1 ч. 53 м.
Вид битрейта : Постоянный
Битрейт : 384 Кбит/сек
Каналы : 6 каналов
Расположение каналов : Front: L C R, Side: L R, LFE
Частота : 48,0 КГц
Битовая глубина : 16 бит
Метод сжатия : С потерями
Размер потока : 311 Мбайт (3%)
Заголовок : Киномания
Язык : Russian
Default : Нет
Forced : Нет
Аудио #4
Идентификатор : 5
Формат : AC-3
Формат/Информация : Audio Coding 3
Расширение режима : CM (complete main)
Параметр Endianness формата : Big
Идентификатор кодека : A_AC3
Продолжительность : 1 ч. 53 м.
Вид битрейта : Постоянный
Битрейт : 384 Кбит/сек
Каналы : 6 каналов
Расположение каналов : Front: L C R, Side: L R, LFE
Частота : 48,0 КГц
Битовая глубина : 16 бит
Метод сжатия : С потерями
Размер потока : 311 Мбайт (3%)
Заголовок : Рябов
Язык : Russian
Default : Нет
Forced : Нет
Аудио #5
Идентификатор : 6
Формат : DTS
Формат/Информация : Digital Theater Systems
Режим : 16
Параметр Endianness формата : Big
Идентификатор кодека : A_DTS
Продолжительность : 1 ч. 53 м.
Вид битрейта : Постоянный
Битрейт : 1510 Кбит/сек
Каналы : 6 каналов
Расположение каналов : Front: L C R, Side: L R, LFE
Частота : 48,0 КГц
Битовая глубина : 24 бит
Метод сжатия : С потерями
Задержка видео : 11 мс.
Размер потока : 1,19 Гбайт (12%)
Заголовок : Гоблин
Язык : Russian
Default : Нет
Forced : Нет
Аудио #6
Идентификатор : 14
Формат : DTS
Формат/Информация : Digital Theater Systems
Режим : 16
Параметр Endianness формата : Big
Идентификатор кодека : A_DTS
Продолжительность : 1 ч. 53 м.
Вид битрейта : Постоянный
Битрейт : 1509 Кбит/сек
Каналы : 6 каналов
Расположение каналов : Front: L C R, Side: L R, LFE
Частота : 48,0 КГц
Битовая глубина : 24 бит
Метод сжатия : С потерями
Задержка видео : 22 мс.
Размер потока : 1,19 Гбайт (12%)
Заголовок : Оригинал
Язык : English
Default : Нет
Forced : Нет
Аудио #7
Идентификатор : 15
Формат : AC-3
Формат/Информация : Audio Coding 3
Расширение режима : CM (complete main)
Параметр Endianness формата : Big
Идентификатор кодека : A_AC3
Продолжительность : 1 ч. 53 м.
Вид битрейта : Постоянный
Битрейт : 224 Кбит/сек
Каналы : 2 канала
Расположение каналов : Front: L R
Частота : 48,0 КГц
Битовая глубина : 16 бит
Метод сжатия : С потерями
Размер потока : 181 Мбайт (2%)
Заголовок : Комментарии
Язык : English
Default : Нет
Forced : Нет
Текст #1
Идентификатор : 7
Формат : UTF-8
Идентификатор кодека : S_TEXT/UTF8
Идентификатор кодека/Информация : UTF-8 Plain Text
Заголовок : Медиалайн
Язык : Russian
Default : Нет
Forced : Нет
Текст #2
Идентификатор : 8
Формат : UTF-8
Идентификатор кодека : S_TEXT/UTF8
Идентификатор кодека/Информация : UTF-8 Plain Text
Заголовок : Позитив
Язык : Russian
Default : Нет
Forced : Нет
Текст #3
Идентификатор : 9
Формат : UTF-8
Идентификатор кодека : S_TEXT/UTF8
Идентификатор кодека/Информация : UTF-8 Plain Text
Заголовок : Киномания
Язык : Russian
Default : Нет
Forced : Нет
Текст #4
Идентификатор : 10
Формат : UTF-8
Идентификатор кодека : S_TEXT/UTF8
Идентификатор кодека/Информация : UTF-8 Plain Text
Заголовок : Гоблин
Язык : Russian
Default : Нет
Forced : Нет
Текст #5
Идентификатор : 11
Формат : UTF-8
Идентификатор кодека : S_TEXT/UTF8
Идентификатор кодека/Информация : UTF-8 Plain Text
Заголовок : Гуртом
Язык : Ukrainian
Default : Нет
Forced : Нет
Текст #6
Идентификатор : 12
Формат : UTF-8
Идентификатор кодека : S_TEXT/UTF8
Идентификатор кодека/Информация : UTF-8 Plain Text
Заголовок : Оригинал
Язык : English
Default : Нет
Forced : Нет
Текст #7
Идентификатор : 13
Формат : UTF-8
Идентификатор кодека : S_TEXT/UTF8
Идентификатор кодека/Информация : UTF-8 Plain Text
Заголовок : Комментарии
Язык : Russian
Default : Да
Forced : Нет
Меню
00:00:00.000 : ru:Ярость
00:05:28.828 : ru:28 дней спустя
00:13:13.001 : ru:Инфицированный
00:17:42.436 : ru:Эпидемия
00:21:50.893 : ru:Мама и папа
00:26:38.847 : ru:Сосед
00:29:06.244 : ru:Единственный путь
00:32:45.463 : ru:Охранник
00:34:50.588 : ru:Фрэнк и Ханна
00:40:03.151 : ru:Ответ инфекции
00:43:01.162 : ru:В Манчестер
00:44:48.436 : ru:Путь смерти
00:47:10.536 : ru:Покупки
00:49:22.668 : ru:Молод и инфицирован
00:53:15.609 : ru:Пикник
00:56:12.202 : ru:Валиум
00:57:54.054 : ru:Плохой сон
01:01:48.330 : ru:Блокада
01:04:24.819 : ru:Капля крови
01:06:39.704 : ru:Убежище
01:10:00.530 : ru:Ответ здесь
01:13:41.167 : ru:Ужин
01:16:55.903 : ru:Атака
01:18:19.987 : ru:Обещание Веста
01:24:28.814 : ru:Палачи
01:27:40.630 : ru:Переодевание
01:29:51.595 : ru:Охота
01:33:30.730 : ru:Наедине с инфекцией
01:40:30.149 : ru:Спаситель
01:43:20.986 : ru:Последний солдат
01:44:46.155 : ru:Выжившие
01:48:05.312 : ru:Финальные титры
Знаете ли Вы, что...
  • Гарланд рассказывал, что вдохновлялся сразу несколькими источниками – трилогией о мертвецах Джорджа Ромеро и романом Джона Уиндэма «День триффидов».
  • Роль Джима предлагали Леонарду ДиКаприо, сыгравшему у Бойла в «Пляже».
  • Роль майора Уэста предлагали Роберту Карлайлу, сыгравшему у Бойла в фильме «На игле» (1996).
  • Пустынные улицы Лондона снимались с самого раннего утра, причем, у съемочной группы было не более пары минут ежедневно; случайных прохожих вежливо просили пройти другой дорогой.
  • Больница в фильме самая настоящая, причем, во время съемок она функционировала, и авторам пришлось заплатить за возможность использовать для съемок отдельные больничные комнаты.
  • Кристофер Экклстон и другие актеры, сыгравшие спасшийся отряд солдат, прошли трехдневную военную подготовку.
  • Стивен Кинг купил для себя отдельный показ фильма.
  • Однажды съемочная группа забыла подобрать после съемок фальшивые трупы у дороги к церкви. Местная парикмахерша проезжала мимо, увидела тела, запаниковала и разбила автомобиль, после чего позвонила в полицию. Съемочной команде этот инцидент стоил разбирательства в полиции.
  • Другое столкновение с полицией состоялось во время съемок взрыва на бензозаправочной станции. У Бойла были все документы, разрешающие взрыв, но полицейских не предупредили, и они моментально выехали на место, едва узнали о взрыве. Туда же прибыла команда пожарных, хотя у съемочной группы была своя пожарная команда.
  • Слово «fuck» произносится в фильме 61 раз.
  • Фильм снят почти полностью на цифру. Лишь финальные сцены в коттедже отсняты на 35-миллиметровую пленку, а флэшбэки с родителями Джима на 8-миллиметровую.
Скачать

Скачать торрент!

Как скачивать? · Что такое торрент? · Рейтинг и ограничения

Сайт не распространяет и не хранит электронные версии произведений, а лишь предоставляет доступ к создаваемому пользователями каталогу ссылок на торрент-файлы, которые содержат только списки хеш-сумм

[Профиль] [ЛС]
Показать сообщения:    
Ответить на тему

Текущее время: Сегодня 10:03

Часовой пояс: GMT + 4



Вы не можете начинать темы
Вы не можете отвечать на сообщения
Вы не можете редактировать свои сообщения
Вы не можете удалять свои сообщения
Вы не можете голосовать в опросах
Вы не можете прикреплять файлы к сообщениям
Вы не можете скачивать файлы