Наследники / Отпрыски / Descendants (Кенни Ортега / Kenny Ortega) [2015, США, комедия, мюзикл, сказка, WEB-DLRip] + Sub Rus, Eng + Original Eng

Ответить на тему
 
Автор Сообщение

user ®

Стаж: 7 лет 7 месяцев

Сообщений: 20008

Пост Пост: #1 от 01-Авг-2015 02:30

[Цитировать]

Наследники / Отпрыски / Descendants
Страна: США
Жанр: комедия, мюзикл, сказка
Год выпуска: 2015
Продолжительность: 01:52:00
Перевод: Субтитры (М.Васильев)
Cубтитры: русские, английские
Оригинальная аудиодорожка: английский
Режиссер: Кенни Ортега / Kenny Ortega
В ролях: Дав Камерон, Бубу Стюарт, София Карсон, Кэмерон Бойс, Митчел Хоуп, Мелани Паксон, Кристин Ченовез
Описание: Эта история случилась в сказочном королевстве, которое было разделено на 2 части: благополучный район, где жили все добрые персонажи сказок и, отгороженные невидимой стеной трущобы, населенные злодеями.
После прихода к власти молодой монарх обьявляет амнистию, по которой всем детям известных злодеев дается шанс на перевоспитание. Они получают возможность учиться в элитной школе вместе с детьми положительных героев...
Доп. информация: Полнометражный телевизионный фильм канала Disney
Сэмпл
IMDB
КИНОПОИСК
РГ TRANSLATORS приглашает к просмотру всех любителей оригинального звука

Качество видео: WEB-DLRip
Формат видео: AVI
Видео: 1414 Kbps, 720x400 (16:9), 23 976 fps, MPEG 4 XviD
Аудио: 448 Kbps, 48.0 KHz, 16 bits, 2 ch, AC 3
Формат субтитров: softsub (SRT)
MediaInfo
General
Complete name : E:\наследники\наследники.avi
Format : AVI
Format/Info : Audio Video Interleave
File size : 1.47 GiB
Duration : 1h 52mn
Overall bit rate : 1 873 Kbps
Writing application : Lavf55.19.104
Writing library : Boilsoft AVI tool build 30012/release
Video
ID : 0
Format : MPEG-4 Visual
Format profile : Simple@L3
Format settings, BVOP : No
Format settings, QPel : No
Format settings, GMC : No warppoints
Format settings, Matrix : Default (H.263)
Codec ID : XVID
Codec ID/Hint : XviD
Duration : 1h 52mn
Bit rate : 1 414 Kbps
Width : 720 pixels
Height : 400 pixels
Display aspect ratio : 16:9
Frame rate : 23.976 fps
Color space : YUV
Chroma subsampling : 4:2:0
Bit depth : 8 bits
Scan type : Progressive
Compression mode : Lossy
Bits/(Pixel*Frame) : 0.205
Stream size : 1.11 GiB (76%)
Writing library : XviD 64
Audio
ID : 1
Format : AC-3
Format/Info : Audio Coding 3
Mode extension : CM (complete main)
Format settings, Endianness : Big
Codec ID : 2000
Duration : 1h 52mn
Bit rate mode : Constant
Bit rate : 448 Kbps
Channel(s) : 2 channels
Channel positions : Front: L R
Sampling rate : 48.0 KHz
Bit depth : 16 bits
Compression mode : Lossy
Stream size : 359 MiB (24%)
Alignment : Aligned on interleaves
Interleave, duration : 32 ms (0.77 video frame)
Interleave, preload duration : 512 ms
Скриншот c названием фильма Скриншоты Титры
1
00:00:00,100 --> 00:00:01,100
Привет!
2
00:00:01,101 --> 00:00:04,101
Сейчас вы увидите
новый диснеевский фильм
3
00:00:05,030 --> 00:00:07,330
НАСЛЕДНИКИ
4
00:00:17,438 --> 00:00:19,438
НАСЛЕДНИКИ
5
00:00:21,506 --> 00:00:24,090
Давным-давно...
6
00:00:24,125 --> 00:00:26,668
Вообще-то,
20 лет назад
7
00:00:26,703 --> 00:00:29,645
Красавица вышла
за Чудовище
8
00:00:29,680 --> 00:00:31,781
и они позвали на
свадьбу 6000 гостей.
9
00:00:31,817 --> 00:00:34,158
Какой большой торт...
10
00:00:34,193 --> 00:00:35,952
А потом они
11
00:00:35,987 --> 00:00:38,438
обьединили все
сказочные королевства
12
00:00:38,473 --> 00:00:40,965
в Соединенные Штаты Орадона.
13
00:00:41,000 --> 00:00:44,777
А затем они собрали всех
злодеев и их помощников,
14
00:00:44,813 --> 00:00:46,913
то есть, всех самых
интересных персонажей,
15
00:00:46,948 --> 00:00:49,390
и изгнали их на
Затерянный остров,
16
00:00:49,426 --> 00:00:51,726
и поставили вокруг
защитное поле.
17
00:00:51,761 --> 00:00:53,803
Мой район.
18
00:00:53,839 --> 00:00:55,179
Ни магии,
19
00:00:55,215 --> 00:00:58,166
ни интернета...
20
00:00:58,201 --> 00:01:01,269
и отсюда не сбежать...
так я думала...
21
00:01:01,304 --> 00:01:03,496
Скоро вы все узнаете...
22
00:01:03,531 --> 00:01:05,223
А вот так все началось...
23
00:01:16,211 --> 00:01:18,686
Невероятно,
24
00:01:18,722 --> 00:01:20,046
через месяц ты
станешь королем...
25
00:01:20,081 --> 00:01:21,514
Ты еще ребенок!
26
00:01:21,549 --> 00:01:23,891
Ему уже16.
Скачать

Скачать торрент!

Как скачивать? · Что такое торрент? · Рейтинг и ограничения

Сайт не распространяет и не хранит электронные версии произведений, а лишь предоставляет доступ к создаваемому пользователями каталогу ссылок на торрент-файлы, которые содержат только списки хеш-сумм

[Профиль] [ЛС]
Показать сообщения:    
Ответить на тему

Текущее время: Сегодня 01:47

Часовой пояс: GMT + 4



Вы не можете начинать темы
Вы не можете отвечать на сообщения
Вы не можете редактировать свои сообщения
Вы не можете удалять свои сообщения
Вы не можете голосовать в опросах
Вы не можете прикреплять файлы к сообщениям
Вы не можете скачивать файлы