Дикие лошади / Wild Horses (Роберт Дювалл / Robert Duvall) [2015, США, драма, криминал, BDRip 1080p] DVO + Original Eng

Ответить на тему
 
Автор Сообщение

user ®

Стаж: 7 лет 7 месяцев

Сообщений: 20008

Пост Пост: #1 от 31-Июл-2015 17:12

[Цитировать]

-Дикие лошади | Wild Horses- Год выпуска: 2015
Страна: США
Студия: Patriot Pictures LLC
Жанр: Драма, криминал
Продолжительность: 01:43:36-Перевод: Любительский (двухголосый закадровый)| Sunny-Films
Cубтитры: отсутствуют
Оригинальная аудиодорожка: английский-Режиссёр: Роберт Дювалл / Robert Duvall-В ролях: Роберт Дювалл, Джеймс Франко, Джош Хартнетт, Лусиана Педраса, Энджи Сепеда, Джим Пэррак, Адриана Барраса, Хоакин Джексон, Кристиан Дженсен-Описание: Техасские рейнджеры расследуют исчезновение мальчика, произошедшее пятнадцать лет назад. Улики приводят их на ферму, однако нынешний ее владелец отказывается от какого-либо сотрудничества.- -| [url=http://***/forum/tracker.php?nm=Wild%20Horses%20Роберт%20Дювалл]Ссылка на предыдущие и альтернативные раздачи[/url]-Качество: BDRip 1080p
Формат: MKV
Видео: x264, ~ 9100 kbps, 1920x800 (16:9), 23,976 fps
Аудио 1: AC3, 48,0 КГц, 2 ch, 192 kbps - Rus
Аудио 2: DTS, 48,0 КГц, 6 ch, 1510 kbps- Eng
Субтитры: отсутствуют-MediaInfo
Общее
Уникальный идентификатор                 : 196339849688428009989120886613403338742 (0x93B5ADF8E61342DC98B807136EF587F6)
Полное имя                               : D:\загрузки\Wild.Horses.2015.L2.1080p.BluRay.mkv
Формат                                   : Matroska
Версия формата                           : Version 4 / Version 2
Размер файла                             : 7,79 Гбайт
Продолжительность                        : 1 ч. 43 м.
Общий поток                              : 10,8 Мбит/сек
Дата кодирования                         : UTC 2015-07-29 21:27:28
Программа кодирования                    : mkvmerge v7.3.0 ('Nouages') 32bit built on Oct 22 2014 18:44:01
Библиотека кодирования                   : libebml v1.3.0 + libmatroska v1.4.1
_STATISTICS_WRITING_APP                  : mkvmerge v7.3.0 ('Nouages') 32bit built on Oct 22 2014 18:44:01
_STATISTICS_WRITING_DATE_UTC             : 2015-07-29 21:27:28
_STATISTICS_TAGS                         : BPS DURATION NUMBER_OF_FRAMES NUMBER_OF_BYTES
DURATION                                 : 01:43:37.888000000
NUMBER_OF_FRAMES                         : 582927
NUMBER_OF_BYTES                          : 1172849124
Видео
Идентификатор                            : 1
Формат                                   : AVC
Формат/Информация                        : Advanced Video Codec
Профиль формата                          : High@L4.1
Параметр CABAC формата                   : Да
Параметр ReFrames формата                : 5 кадров
Идентификатор кодека                     : V_MPEG4/ISO/AVC
Продолжительность                        : 1 ч. 43 м.
Битрейт                                  : 9057 Кбит/сек
Ширина                                   : 1920 пикселей
Высота                                   : 800 пикселей
Соотношение сторон                       : 2,40:1
Режим частоты кадров                     : Постоянный
Частота кадров                           : 23,976 кадра/сек
Цветовое пространство                    : YUV
Субдискретизация насыщенности            : 4:2:0
Битовая глубина                          : 8 бит
Тип развёртки                            : Прогрессивная
Бит/(Пиксели*Кадры)                      : 0.246
Размер потока                            : 6,40 Гбайт (82%)
Библиотека кодирования                   : x264 core 146 r2538 121396c
Настройки программы                      : cabac=1 / ref=5 / deblock=1:0:0 / analyse=0x3:0x133 / me=umh / subme=7 / psy=1 / psy_rd=1.00:0.00 / mixed_ref=1 / me_range=16 / chroma_me=1 / trellis=1 / 8x8dct=1 / cqm=0 / deadzone=21,11 / fast_pskip=0 / chroma_qp_offset=-2 / threads=18 / lookahead_threads=3 / sliced_threads=0 / nr=0 / decimate=1 / interlaced=0 / bluray_compat=0 / constrained_intra=0 / bframes=3 / b_pyramid=2 / b_adapt=1 / b_bias=0 / direct=1 / weightb=1 / open_gop=0 / weightp=2 / keyint=250 / keyint_min=23 / scenecut=40 / intra_refresh=0 / rc_lookahead=40 / rc=2pass / mbtree=1 / bitrate=9057 / ratetol=1.0 / qcomp=0.60 / qpmin=0 / qpmax=69 / qpstep=4 / cplxblur=20.0 / qblur=0.5 / ip_ratio=1.40 / aq=1:1.00
Язык                                     : English
Default                                  : Да
Forced                                   : Нет
_STATISTICS_WRITING_APP                  : mkvmerge v7.3.0 ('Nouages') 32bit built on Oct 22 2014 18:44:01
_STATISTICS_WRITING_DATE_UTC             : 2015-07-29 21:27:28
_STATISTICS_TAGS                         : BPS DURATION NUMBER_OF_FRAMES NUMBER_OF_BYTES
DURATION                                 : 01:43:37.763000000
NUMBER_OF_FRAMES                         : 149077
NUMBER_OF_BYTES                          : 7037542841
Аудио #1
Идентификатор                            : 2
Формат                                   : AC-3
Формат/Информация                        : Audio Coding 3
Расширение режима                        : CM (complete main)
Параметр Endianness формата              : Big
Идентификатор кодека                     : A_AC3
Продолжительность                        : 1 ч. 43 м.
Вид битрейта                             : Постоянный
Битрейт                                  : 192 Кбит/сек
Каналы                                   : 2 канала
Расположение каналов                     : Front: L R
Частота                                  : 48,0 КГц
Битовая глубина                          : 16 бит
Метод сжатия                             : С потерями
Задержка видео                           : 1 с. 0 мс.
Размер потока                            : 142 Мбайт (2%)
Язык                                     : Russian
Default                                  : Да
Forced                                   : Нет
Аудио #2
Идентификатор                            : 3
Формат                                   : DTS
Формат/Информация                        : Digital Theater Systems
Режим                                    : 16
Параметр Endianness формата              : Big
Идентификатор кодека                     : A_DTS
Продолжительность                        : 1 ч. 43 м.
Вид битрейта                             : Постоянный
Битрейт                                  : 1509 Кбит/сек
Каналы                                   : 6 каналов
Расположение каналов                     : Front: L C R, Side: L R, LFE
Частота                                  : 48,0 КГц
Битовая глубина                          : 24 бит
Метод сжатия                             : С потерями
Размер потока                            : 1,09 Гбайт (14%)
Язык                                     : English
Default                                  : Нет
Forced                                   : Нет
Меню
00:00:00.000                             : en:00:00:00.000
00:07:01.838                             : en:00:07:01.838
00:14:20.026                             : en:00:14:20.026
00:24:46.694                             : en:00:24:46.694
00:37:03.138                             : en:00:37:03.138
00:45:39.904                             : en:00:45:39.904
00:53:37.506                             : en:00:53:37.506
01:03:33.518                             : en:01:03:33.518
01:12:20.253                             : en:01:12:20.253
01:21:03.400                             : en:01:21:03.400
01:29:14.933                             : en:01:29:14.933
01:37:19.584                             : en:01:37:19.584
Скриншоты
Скачать

Скачать торрент!

Как скачивать? · Что такое торрент? · Рейтинг и ограничения

Сайт не распространяет и не хранит электронные версии произведений, а лишь предоставляет доступ к создаваемому пользователями каталогу ссылок на торрент-файлы, которые содержат только списки хеш-сумм

[Профиль] [ЛС]
Показать сообщения:    
Ответить на тему

Текущее время: Сегодня 19:28

Часовой пояс: GMT + 4



Вы не можете начинать темы
Вы не можете отвечать на сообщения
Вы не можете редактировать свои сообщения
Вы не можете удалять свои сообщения
Вы не можете голосовать в опросах
Вы не можете прикреплять файлы к сообщениям
Вы не можете скачивать файлы