Хоббит: Битва пяти воинств / The Hobbit: The Battle of the Five Armies (Питер Джексон / Peter Jackson) [2014, Новая Зеландия, США, фэнтези, приключения, BDRip 720p] Dub + AVO (Сербин) + Sub Rus, Ukr, Eng + Original Eng

Ответить на тему
 
Автор Сообщение

user ®

Стаж: 7 лет 7 месяцев

Сообщений: 20008

Пост Пост: #1 от 31-Июл-2015 14:06

[Цитировать]

Хоббит: Битва пяти воинств / The Hobbit: The Battle of the Five Armies Страна: Новая Зеландия, США
Студия: New Line Cinema, Metro-Goldwyn-Mayer
Жанр: Фэнтези, приключения
Год выпуска: 2014
Продолжительность: 02:24:28
Перевод 1: Профессиональный (дублированный) Blu-ray CEE + вставки Юрия Сербина на речь эльфов и орков
Перевод 2: Авторский (одноголосый закадровый) Сербин
Cубтитры: русские (forced, full-BD, full-voronine), украинские (forced), английские (full, SDH)
Оригинальная аудиодорожка: английский
Режиссер: Питер Джексон / Peter Jackson
В ролях: Мартин Фриман, Иэн МакКеллен, Ричард Армитедж, Джеймс Несбитт, Кен Стотт, Грэм МакТавиш, Уильям Кирчер, Стивен Хантер, Дин О’Горман, Эйдан Тернер
Описание: Когда отряд из тринадцати гномов нанимал хоббита Бильбо Бэгинса в качестве взломщика и четырнадцатого, «счастливого», участника похода к Одинокой горе, Бильбо полагал, что его приключения закончатся, когда он выполнит свою задачу — найдет сокровище, которое так необходимо предводителю гномов Торину. Путешествие в Эребор, захваченное драконом Смаугом королевство гномов, оказалось еще более опасным, чем предполагали гномы и даже Гэндальф — мудрый волшебник, протянувший Торину и его отряду руку помощи.
В погоню за гномами устремилась армия орков, ведомых пробудившимся в руинах древним злом, а эльфы и люди, с которыми Бильбо и его товарищам пришлось иметь дело во время путешествия и которые пострадали от последствий желания гномов вернуть свой дом, предъявили права на щедрое вознаграждение — часть сокровищ Одинокой горы. Скоро неподалеку от Одинокой горы встретятся пять армий, и лишь кровопролитная битва определит результаты смелого гномьего похода.


Тип релиза: BDRip 720p [EbP]
Контейнер: MKV
Видео: AVC, 1280x534, 6543 kbps, 23.976 fps
Аудио 1: Russian: 48 kHz, AC3, 3/2 (L,C,R,l,r) + LFE ch, ~448.00 kbps avg |Blu-ray CEE |
Аудио 2: Russian: 48 kHz, AC3, 3/2 (L,C,R,l,r) + LFE ch, ~448.00 kbps avg |Blu-ray CEE + вставки Юрия Сербина|
Аудио 3: Ukrainian: 48 kHz, AC3, 3/2 (L,C,R,l,r) + LFE ch, ~448.00 kbps avg |Blu-ray CEE|
Аудио 4: Russian: 48 kHz, AC3, 3/2 (L,C,R,l,r) + LFE ch, ~640.00 kbps avg |Сербин|
Аудио 5: English: 48 kHz, AC3, 3/2 (L,C,R,l,r) + LFE ch, ~640.00 kbps |Original|
Чаптеры: есть

x264 log
x264 [info]: frame I:1826 Avg QP:13.77 size:136818
x264 [info]: frame P:55990 Avg QP:15.45 size: 59631
x264 [info]: frame B:150010 Avg QP:16.95 size: 24508
x264 [info]: consecutive B-frames: 3.5% 5.8% 14.3% 44.7% 10.7% 16.2% 2.0% 2.3% 0.5%
encoded 207826 frames, 4.064 fps, 6705.09 kb/s, 6928.5 MB
Доп.информация
За перевод Юрия Сербина большое спасибо пользователям HDTracker'a - rebz9i, Letyoha3, Shumway, Gross1978, Tagansky, ZeRoNe, Cyberclean, DaviD18_85, _MyxAmoP_
и ресурса E180 - dvd100, пуля, ultrajeka, urassiks, idalgo, chontvari, xerman13, blackmore, Ramis, carnivale, Эдуард, DB73, Foots, zaq-qaz, Palmer Eldritch, Slimka, Iceman, Loki1982, luka69, Tio, Roman Lee, Daniel Rock, SoftSlider, Водолей, ValK, STONECOLD, SilverBeast, Bilko, fryak, HDKing, matrox, masta, DMX-92
За работу над дорожкой со вставками Сербина спасибо:angelica_k
MediaInfo
General
Unique ID : 212241195102943194262790667356261725093 (0x9FAC2AD4B49F3585B1594E46BE1233A5)
Complete name : D:\\The.Hobbit.The.Battle.of.the .Five.Armies.2014.720p.BluRay.DD5.1.x264-Talian-.mkv
Format : Matroska
Format version : Version 2
File size : 9.42 GiB
Duration : 2h 24mn
Overall bit rate : 9 332 Kbps
Movie name : The Hobbit: The Battle of the Five Armies -Talian-
Encoded date : UTC 2015-07-30 17:47:45
Writing application : mkvmerge v5.7.0 ('The Whirlwind') built on Jul 8 2012 20:08:51
Writing library : libebml v1.2.3 + libmatroska v1.3.0
Attachment : Yes / Yes
Video
ID : 1
Format : AVC
Format/Info : Advanced Video Codec
Format profile : High@L4.1
Format settings, CABAC : Yes
Format settings, ReFrames : 12 frames
Codec ID : V_MPEG4/ISO/AVC
Duration : 2h 24mn
Bit rate : 6 522 Kbps
Width : 1 280 pixels
Height : 534 pixels
Display aspect ratio : 2.40:1
Frame rate : 23.976 fps
Color space : YUV
Chroma subsampling : 4:2:0
Bit depth : 8 bits
Scan type : Progressive
Bits/(Pixel*Frame) : 0.398
Stream size : 6.58 GiB (70%)
Title : EbP
Writing library : x264 core 142 r2431+42 c69a006 tMod [8-bit@all X86_64]
Encoding settings : cabac=1 / ref=12 / deblock=1:-3:-3 / analyse=0x3:0x113 / me=tesa / subme=10 / psy=1 / fade_compensate=0.00 / psy_rd=1.00:0.00 / mixed_ref=1 / me_range=24 / chroma_me=1 / trellis=2 / 8x8dct=1 / cqm=0 / deadzone=21,11 / fast_pskip=0 / chroma_qp_offset=-2 / threads=12 / lookahead_threads=2 / sliced_threads=0 / nr=0 / decimate=0 / interlaced=0 / bluray_compat=0 / constrained_intra=0 / fgo=0 / bframes=8 / b_pyramid=2 / b_adapt=2 / b_bias=0 / direct=3 / weightb=1 / open_gop=0 / weightp=2 / keyint=250 / keyint_min=23 / scenecut=40 / intra_refresh=0 / rc_lookahead=40 / rc=crf / mbtree=0 / crf=15.0000 / qcomp=0.70 / qpmin=0:0:0 / qpmax=69:69:69 / qpstep=4 / vbv_maxrate=62500 / vbv_bufsize=78125 / crf_max=0.0 / nal_hrd=none / filler=0 / ip_ratio=1.30 / pb_ratio=1.20 / aq=4:1.00 / aq-sensitivity=10.00 / aq-factor=1.00:1.00:1.00 / aq2=0 / aq3=0
Language : English
Default : Yes
Forced : No
Audio #1
ID : 2
Format : AC-3
Format/Info : Audio Coding 3
Mode extension : CM (complete main)
Format settings, Endianness : Big
Codec ID : A_AC3
Duration : 2h 24mn
Bit rate mode : Constant
Bit rate : 448 Kbps
Channel(s) : 6 channels
Channel positions : Front: L C R, Side: L R, LFE
Sampling rate : 48.0 KHz
Bit depth : 16 bits
Compression mode : Lossy
Stream size : 463 MiB (5%)
Title : Blu-ray CEE
Language : Russian
Default : Yes
Forced : No
Audio #2
ID : 3
Format : AC-3
Format/Info : Audio Coding 3
Mode extension : CM (complete main)
Format settings, Endianness : Big
Codec ID : A_AC3
Duration : 2h 24mn
Bit rate mode : Constant
Bit rate : 448 Kbps
Channel(s) : 6 channels
Channel positions : Front: L C R, Side: L R, LFE
Sampling rate : 48.0 KHz
Bit depth : 16 bits
Compression mode : Lossy
Stream size : 463 MiB (5%)
Title : DUB-Blu-ray CEE+вставки Сербина
Language : Russian
Default : No
Forced : No
Audio #3
ID : 4
Format : AC-3
Format/Info : Audio Coding 3
Mode extension : CM (complete main)
Format settings, Endianness : Big
Codec ID : A_AC3
Duration : 2h 24mn
Bit rate mode : Constant
Bit rate : 448 Kbps
Channel(s) : 6 channels
Channel positions : Front: L C R, Side: L R, LFE
Sampling rate : 48.0 KHz
Bit depth : 16 bits
Compression mode : Lossy
Stream size : 463 MiB (5%)
Title : DUB- Blu-ray CEE
Language : Ukrainian
Default : No
Forced : No
Audio #4
ID : 5
Format : AC-3
Format/Info : Audio Coding 3
Mode extension : CM (complete main)
Format settings, Endianness : Big
Codec ID : A_AC3
Duration : 2h 24mn
Bit rate mode : Constant
Bit rate : 640 Kbps
Channel(s) : 6 channels
Channel positions : Front: L C R, Side: L R, LFE
Sampling rate : 48.0 KHz
Bit depth : 16 bits
Compression mode : Lossy
Stream size : 661 MiB (7%)
Title : AVO-Сербин
Language : Russian
Default : No
Forced : No
Audio #5
ID : 6
Format : AC-3
Format/Info : Audio Coding 3
Mode extension : CM (complete main)
Format settings, Endianness : Big
Codec ID : A_AC3
Duration : 2h 24mn
Bit rate mode : Constant
Bit rate : 640 Kbps
Channel(s) : 6 channels
Channel positions : Front: L C R, Side: L R, LFE
Sampling rate : 48.0 KHz
Bit depth : 16 bits
Compression mode : Lossy
Stream size : 661 MiB (7%)
Title : Original
Language : English
Default : No
Forced : No
Text #1
ID : 7
Format : UTF-8
Codec ID : S_TEXT/UTF8
Codec ID/Info : UTF-8 Plain Text
Title : Sub-Forced
Language : Russian
Default : Yes
Forced : No
Text #2
ID : 8
Format : UTF-8
Codec ID : S_TEXT/UTF8
Codec ID/Info : UTF-8 Plain Text
Title : Sub-Forced-COLORED
Language : Russian
Default : No
Forced : No
Text #3
ID : 9
Format : UTF-8
Codec ID : S_TEXT/UTF8
Codec ID/Info : UTF-8 Plain Text
Title : Sub-BD
Language : Russian
Default : No
Forced : No
Text #4
ID : 10
Format : UTF-8
Codec ID : S_TEXT/UTF8
Codec ID/Info : UTF-8 Plain Text
Title : Sub-voronine
Language : Russian
Default : No
Forced : No
Text #5
ID : 11
Format : UTF-8
Codec ID : S_TEXT/UTF8
Codec ID/Info : UTF-8 Plain Text
Title : Sub-Forced
Language : Ukrainian
Default : No
Forced : No
Text #6
ID : 12
Format : UTF-8
Codec ID : S_TEXT/UTF8
Codec ID/Info : UTF-8 Plain Text
Title : Sub-full
Language : English
Default : No
Forced : No
Text #7
ID : 13
Format : UTF-8
Codec ID : S_TEXT/UTF8
Codec ID/Info : UTF-8 Plain Text
Title : Sub-SDH
Language : English
Default : No
Forced : No
Menu
00:00:00.000 : en:Fire and Water
00:05:12.395 : en:Bard the Dragon-Slayer
00:12:26.287 : en:Dungeons of the Dark Lord
00:12:58.527 : en:Shores of the Long Lake
00:18:36.657 : en:Not at Home
00:23:21.399 : en:"Others Will Now Look to the Mountain"
00:24:35.390 : en:Legions of the Defiler
00:25:43.625 : en:The Mark of Gundabad
00:27:12.255 : en:Attack on Dol Guldur
00:34:30.109 : en:The King's Jewel
00:38:27.722 : en:The Ruins of Dale
00:39:46.967 : en:Erebor Fortified
00:40:57.580 : en:The Elvenking's Aid
00:43:54.506 : en:The Gathering of the Clouds
00:49:06.026 : en:A Token of Friendship
00:52:36.319 : en:The Shadow of Gundabad
00:53:53.188 : en:"The Last Move in a Master Plan"
00:56:09.657 : en:Bolg of the North
00:58:04.731 : en:A Thief in the Night
01:01:57.964 : en:An Honest Burglar
01:07:13.696 : en:Dain Ironfoot
01:10:00.446 : en:The Clouds Burst
01:12:29.887 : en:The Battle at Dale
01:16:51.523 : en:The Darkest Hour
01:20:05.926 : en:Dragon Sickness
01:22:15.347 : en:The Return of Thorin Oakenshield
01:24:25.226 : en:Sons of Durin
01:26:35.899 : en:"To the King!"
01:29:18.895 : en:Thorin's Plan
01:31:17.388 : en:The Fifth Army
01:32:03.851 : en:Scouting Rayenhill
01:33:01.575 : en:Blood of The Eldar
01:35:58.169 : en:Courage and Cowardice
01:36:52.431 : en:The Fallen
01:40:16.385 : en:The Battle at Ravenhill
01:48:15.530 : en:To the Death
01:54:22.438 : en:Parting in Friendship
01:57:41.637 : en:The Sorrow of Elves
02:00:47.907 : en:The Return Journey
02:06:48.434 : en:The Last Stage
02:11:31.300 : en:Credits
Скриншоты
Source vs Encode



Скачать

Скачать торрент!

Как скачивать? · Что такое торрент? · Рейтинг и ограничения

Сайт не распространяет и не хранит электронные версии произведений, а лишь предоставляет доступ к создаваемому пользователями каталогу ссылок на торрент-файлы, которые содержат только списки хеш-сумм

[Профиль] [ЛС]
Показать сообщения:    
Ответить на тему

Текущее время: Сегодня 12:51

Часовой пояс: GMT + 4



Вы не можете начинать темы
Вы не можете отвечать на сообщения
Вы не можете редактировать свои сообщения
Вы не можете удалять свои сообщения
Вы не можете голосовать в опросах
Вы не можете прикреплять файлы к сообщениям
Вы не можете скачивать файлы