Хайдер / Haider (Вишал Бхарадвадж / Vishal Bhardwaj) [2014, Индия, Драма, триллер, мелодрама, криминал, HDRip] MVO (SDI Media)

Ответить на тему
 
Автор Сообщение

user ®

Стаж: 12 лет

Сообщений: 15092

Пост Пост: #1 от 30-Июл-2015 22:39

[Цитировать]

Хайдер / Haider*Есть многое на свете, друг Горацио, что и не снилось нашим мудрецам* -Страна: Индия
Жанр: Драма, триллер, мелодрама, криминал
Год выпуска: 2014
Продолжительность: 02:41:20--Язык: Хинди
Перевод: Профессиональный (многоголосый закадровый) - SDI Media
Субтитры: Нет--Режиссер: Вишал Бхарадвадж / Vishal Bhardwaj-В ролях: Табу, Шахид Капур, Шраддха Капур, Кэй Кэй Менон, Нарендра Джха, Кулбхушан Харбанда, Лалит Париму, Ашиш Видьятхи, Амир Башир, Сумит Коул--Описание: Современная адаптация шекспировской трагедии «Гамлет». Хайдер возвращается из учёбы в родной город. Там он узнаёт о заточении своего отца в плен боевиками Индийской Армии. Разгадывая местонахождение отца, он понимает, что в этом деле замешаны местные власти и члены его семьи. Не получив правды мирным путём, он берёт в руки оружие и решает вывести всех на чистую воду… (c) Honey-- | --Качество видео: HDRip (исх. BDRip 1080p от DDR)
Формат видео: AVI-Видео: 672x288 (2.33:1), 23.976 fps, XviD build 50 ~1157 kbps avg, 0.25 bit/pixel
Аудио: 48 kHz, MPEG Layer 3, 2 ch, ~128.00 kbps avg--Сэмпл / Sample--Релиз:
Риппер: soso4eg-- -
-
-Скриншот с названием:
-
Скриншоты:
-
MediaInfo
General
Complete name : H:\[Releases]\Hayder.2014.P.HDRip.XviD.BwTorrents-soso4eg.avi
Format : AVI
Format/Info : Audio Video Interleave
File size : 1.46 GiB
Duration : 2h 41mn
Overall bit rate : 1 295 Kbps
Movie name : Haider.2014.HDRip.XviD.BwTorrents-soso4eg
Director : soso4eg
Writing application : VirtualDubMod 1.6.0.0 SURROUND (build 2560/release)
Original source form/Name : Hindi
Copyright :
Video
ID : 0
Format : MPEG-4 Visual
Format profile : Advanced Simple@L5
Format settings, BVOP : 2
Format settings, QPel : No
Format settings, GMC : No warppoints
Format settings, Matrix : Default (MPEG)
Codec ID : XVID
Codec ID/Hint : XviD
Duration : 2h 41mn
Bit rate : 1 158 Kbps
Width : 672 pixels
Height : 288 pixels
Display aspect ratio : 2.35:1
Frame rate : 23.976 fps
Color space : YUV
Chroma subsampling : 4:2:0
Bit depth : 8 bits
Scan type : Progressive
Compression mode : Lossy
Bits/(Pixel*Frame) : 0.249
Stream size : 1.30 GiB (89%)
Writing library : XviD 1.2.1 (UTC 2008-12-04)
Audio
ID : 1
Format : MPEG Audio
Format version : Version 1
Format profile : Layer 3
Mode : Joint stereo
Mode extension : MS Stereo
Codec ID : 55
Codec ID/Hint : MP3
Duration : 2h 41mn
Bit rate mode : Constant
Bit rate : 128 Kbps
Channel(s) : 2 channels
Sampling rate : 48.0 KHz
Compression mode : Lossy
Stream size : 148 MiB (10%)
Alignment : Aligned on interleaves
Interleave, duration : 42 ms (1.00 video frame)
Interleave, preload duration : 504 ms
Скачать

Скачать торрент! Хайдер / Haider (Вишал Бхарадвадж / Vishal Bhardwaj) [2014, Индия, Драма, триллер, мелодрама, криминал, HDRip] MVO (SDI Media)

Как скачивать? · Что такое торрент? · Рейтинг и ограничения

Сайт не распространяет и не хранит электронные версии произведений, а лишь предоставляет доступ к создаваемому пользователями каталогу ссылок на торрент-файлы, которые содержат только списки хеш-сумм

[Профиль] [ЛС]
Показать сообщения:    
Ответить на тему

Текущее время: Сегодня 07:23

Часовой пояс: GMT + 4



Вы не можете начинать темы
Вы не можете отвечать на сообщения
Вы не можете редактировать свои сообщения
Вы не можете удалять свои сообщения
Вы не можете голосовать в опросах
Вы не можете прикреплять файлы к сообщениям
Вы не можете скачивать файлы