Номер 44 / Child 44 (Даниэль Эспиноса / Daniel Espinosa) [2015, США, Великобритания, Чехия, Румыния, триллер, драма, BDRip 720p] Dub + Sub Eng + Original Eng

Ответить на тему
 
Автор Сообщение

user ®

Стаж: 7 лет 7 месяцев

Сообщений: 20008

Пост Пост: #1 от 30-Июл-2015 22:39

[Цитировать]

Номер 44 / Child 44 Страна: США, Великобритания, Чехия, Румыния
Студия: Etalon film, Scott Free Productions
Жанр: триллер, драма
Год выпуска: 2015
Продолжительность: 02:17:11
Перевод: Профессиональный (дублированный) itunes Russia
Cубтитры: английские
Оригинальная аудиодорожка: английский
Режиссер: Даниэль Эспиноса / Daniel Espinosa
В ролях: Том Харди, Гари Олдман, Нуми Рапас, Юэль Киннаман, Пэдди Консидайн, Джейсон Кларк, Венсан Кассель, Ксавьер Аткинс, Марк Льюис Джонс, Фарес Фарес
Описание: Действие фильма развернется в СССР времен Иосифа Сталина. Главный герой — дискредитированный офицер советской разведки Лев Демидов. Он расследует серию детских убийств, но его деятельность вызывает подозрение у параноидального советского правительства.

Тип релиза: BDRip 720p [HiDt]
Контейнер: MKV
Видео: AVC, 1280x534, 5430kbps, 23.976 fps
Аудио 1: Russian: 48 kHz, AC3, 3/2 (L,C,R,l,r) + LFE ch, ~384.00 kbps |iTunes Russia|
Аудио 2: English: 48 kHz, AC3, 3/2 (L,C,R,l,r) + LFE ch, ~640.00 kbps |Original|
Чаптеры: есть

x264 log
x264 [info]: frame I:1378 Avg QP:12.76 size: 86926
x264 [info]: frame P:38855 Avg QP:13.96 size: 46364
x264 [info]: frame B:157116 Avg QP:15.25 size: 24173
x264 [info]: consecutive B-frames: 2.3% 2.6% 7.7% 9.3% 13.3% 36.1% 7.7% 1.5% 4.4% 6.0% 9.0%
MediaInfo
General
Unique ID : 196708016122689884059327282681640998594 (0x93FC95FA9AB9765098A7FFAAA1E556C2)
Complete name : D:\Child.44.2015.720p.BluRay.DD5.1.x264-Talian-.mkv
Format : Matroska
Format version : Version 2
File size : 6.31 GiB
Duration : 2h 17mn
Overall bit rate : 6 585 Kbps
Movie name : Child 44-Talian-
Encoded date : UTC 2015-07-26 09:33:12
Writing application : mkvmerge v5.7.0 ('The Whirlwind') built on Jul 8 2012 20:08:51
Writing library : libebml v1.2.3 + libmatroska v1.3.0
Video
ID : 1
Format : AVC
Format/Info : Advanced Video Codec
Format profile : High@L4.1
Format settings, CABAC : Yes
Format settings, ReFrames : 12 frames
Codec ID : V_MPEG4/ISO/AVC
Duration : 2h 17mn
Bit rate : 5 430 Kbps
Width : 1 280 pixels
Height : 534 pixels
Display aspect ratio : 2.40:1
Frame rate : 23.976 fps
Color space : YUV
Chroma subsampling : 4:2:0
Bit depth : 8 bits
Scan type : Progressive
Bits/(Pixel*Frame) : 0.331
Stream size : 5.20 GiB (82%)
Title : HiDt
Writing library : x264 core 146 r2538 121396c
Encoding settings : cabac=1 / ref=12 / deblock=1:-3:-3 / analyse=0x3:0x133 / me=tesa / subme=11 / psy=1 / psy_rd=1.00:0.00 / mixed_ref=1 / me_range=16 / chroma_me=1 / trellis=2 / 8x8dct=1 / cqm=0 / deadzone=21,11 / fast_pskip=0 / chroma_qp_offset=-2 / threads=12 / lookahead_threads=3 / sliced_threads=0 / nr=0 / decimate=1 / interlaced=0 / bluray_compat=0 / constrained_intra=0 / bframes=10 / b_pyramid=2 / b_adapt=2 / b_bias=0 / direct=3 / weightb=1 / open_gop=0 / weightp=2 / keyint=240 / keyint_min=23 / scenecut=40 / intra_refresh=0 / rc_lookahead=60 / rc=crf / mbtree=0 / crf=16.3 / qcomp=0.73 / qpmin=0 / qpmax=69 / qpstep=4 / vbv_maxrate=62500 / vbv_bufsize=78125 / crf_max=0.0 / nal_hrd=none / filler=0 / ip_ratio=1.24 / pb_ratio=1.18 / aq=1:0.80
Language : English
Default : Yes
Forced : No
Audio #1
ID : 2
Format : AC-3
Format/Info : Audio Coding 3
Mode extension : CM (complete main)
Format settings, Endianness : Big
Codec ID : A_AC3
Duration : 2h 17mn
Bit rate mode : Constant
Bit rate : 384 Kbps
Channel(s) : 6 channels
Channel positions : Front: L C R, Side: L R, LFE
Sampling rate : 48.0 KHz
Bit depth : 16 bits
Compression mode : Lossy
Stream size : 377 MiB (6%)
Title : DUB-iTunes Russia
Language : Russian
Default : Yes
Forced : No
Audio #2
ID : 3
Format : AC-3
Format/Info : Audio Coding 3
Mode extension : CM (complete main)
Format settings, Endianness : Big
Codec ID : A_AC3
Duration : 2h 17mn
Bit rate mode : Constant
Bit rate : 640 Kbps
Channel(s) : 6 channels
Channel positions : Front: L C R, Side: L R, LFE
Sampling rate : 48.0 KHz
Bit depth : 16 bits
Compression mode : Lossy
Stream size : 628 MiB (10%)
Title : Original
Language : English
Default : No
Forced : No
Text #1
ID : 4
Format : UTF-8
Codec ID : S_TEXT/UTF8
Codec ID/Info : UTF-8 Plain Text
Title : Sub-full
Language : English
Default : No
Forced : No
Text #2
ID : 5
Format : UTF-8
Codec ID : S_TEXT/UTF8
Codec ID/Info : UTF-8 Plain Text
Title : Sub-SDH
Language : English
Default : No
Forced : No
Menu
00:00:00.000 : en:00:00:00.000
00:06:34.060 : en:00:06:34.060
00:17:19.288 : en:00:17:19.288
00:22:45.197 : en:00:22:45.197
00:33:14.451 : en:00:33:14.451
00:40:53.993 : en:00:40:53.993
00:48:27.446 : en:00:48:27.446
00:59:22.767 : en:00:59:22.767
01:03:56.166 : en:01:03:56.166
01:10:16.420 : en:01:10:16.420
01:19:23.383 : en:01:19:23.383
01:28:12.787 : en:01:28:12.787
01:38:45.670 : en:01:38:45.670
01:47:48.921 : en:01:47:48.921
01:54:15.056 : en:01:54:15.056
02:02:20.375 : en:02:02:20.375
Скриншоты
Source vs Encode


Скачать

Скачать торрент!

Как скачивать? · Что такое торрент? · Рейтинг и ограничения

Сайт не распространяет и не хранит электронные версии произведений, а лишь предоставляет доступ к создаваемому пользователями каталогу ссылок на торрент-файлы, которые содержат только списки хеш-сумм

[Профиль] [ЛС]
Показать сообщения:    
Ответить на тему

Текущее время: Сегодня 03:13

Часовой пояс: GMT + 4



Вы не можете начинать темы
Вы не можете отвечать на сообщения
Вы не можете редактировать свои сообщения
Вы не можете удалять свои сообщения
Вы не можете голосовать в опросах
Вы не можете прикреплять файлы к сообщениям
Вы не можете скачивать файлы