Дэниэл Бун / Daniel Boone (Джофф Коллинз / Geoff Collins) [1981, Анимация, приключения, VHSRip] Dub

Ответить на тему
 
Автор Сообщение

user ®

Стаж: 11 лет

Сообщений: 15145

Пост Пост: #1 от 30-Июл-2015 19:33

[Цитировать]

Дэниэл Бун / Daniel Boone
Страна: США
Жанр: Анимация, приключения, вестерн
Продолжительность: 00:48:02
Год выпуска: 1981
Перевод: Профессиональный (дублированный)
Русские субтитры: нет
Режиссёр: Джофф Коллинз / Geoff Collins
Роли озвучивали: Richard Crenna ... (voice)
John Stephenson ... (voice)
Joe Baker ... (voice)
Michael Bell ... (voice)
Janet Waldo ... (voice)
Joan Gerber ... (voice)
William Callaway ... (voice)
Описание: http://www.imdb.com/title/tt0175551/
На кинопоиске нет пока этого мульта.
Daniel Boone tells his true life story, separating fact from fable, as he reflects upon his life and his accomplishments for a writer eager to be able to portray the real story. Animation helps us to revisit his playful childhood, his meeting with George Washington and courtship with Rebecca. We see him exploring Kentucky, killing a bear with his bare hands and escaping a vengeful Indian. (Помогите сделать правильный перевод описания)
Доп. информация: Оцифровка VHS (личный архив) и получение VHSRip alenavova
Эксклюзив для ***. При размещении данного релиза на других сайтах ссылка на автора alenavova обязательна.

Релиз
Семпл: https://yadi.sk/i/-de5LIS9iBQPF
Качество: VHSRip
Формат: AVI
Видео: 640x480 (1.33:1), 25 fps, XviD build 50 ~1981 kbps avg, 0.26 bit/pixel
Аудио: 48 kHz, AC3 Dolby Digital, 2/0 (L,R) ch, ~192 kbps
Субтитры: отсутствуют
Подробные технические данные
Дэниэл Бун - Daniel Boone [by alenavova].aviFormat : AVIFormat/Info : Audio Video InterleaveFile size : 750 MiBDuration : 48mn 2sOverall bit rate : 2 184 KbpsMovie name : Дэниэл Бун - Daniel Boone [by alenavova]Director : by alenavovaWriting application : VirtualDubMod 1.5.10.3 | www.virtualdub-fr.org || (build 2550/release)Copyright : Edich2Comment : ***
VideoID : 0Format : MPEG-4 VisualFormat profile : Advanced Simple@L5Format settings, BVOP : 1Format settings, QPel : NoFormat settings, GMC : No warppointsFormat settings, Matrix : Default (MPEG)Codec ID : XVIDCodec ID/Hint : XviDDuration : 48mn 2sBit rate : 1 982 KbpsWidth : 640 pixelsHeight : 480 pixelsDisplay aspect ratio : 4:3Frame rate : 25.000 fpsColor space : YUVChroma subsampling : 4:2:0Bit depth : 8 bitsScan type : ProgressiveCompression mode : LossyBits/(Pixel*Frame) : 0.258Stream size : 681 MiB (91%)Writing library : XviD 1.2.1 (UTC 2008-12-04)
AudioID : 1Format : AC-3Format/Info : Audio Coding 3Mode extension : CM (complete main)Format settings, Endianness : BigCodec ID : 2000Duration : 48mn 2sBit rate mode : ConstantBit rate : 192 KbpsChannel(s) : 2 channelsChannel positions : Front: L RSampling rate : 48.0 KHzBit depth : 16 bitsCompression mode : LossyStream size : 66.0 MiB (9%)Alignment : Split accross interleavesInterleave, duration : 40 ms (1.00 video frame)Interleave, preload duration : 500 ms
Скриншоты
Скачать

Скачать торрент! Дэниэл Бун / Daniel Boone (Джофф Коллинз / Geoff Collins) [1981, Анимация, приключения, VHSRip] Dub

Как скачивать? · Что такое торрент? · Рейтинг и ограничения

Сайт не распространяет и не хранит электронные версии произведений, а лишь предоставляет доступ к создаваемому пользователями каталогу ссылок на торрент-файлы, которые содержат только списки хеш-сумм

[Профиль] [ЛС]
Показать сообщения:    
Ответить на тему

Текущее время: Сегодня 17:56

Часовой пояс: GMT + 4



Вы не можете начинать темы
Вы не можете отвечать на сообщения
Вы не можете редактировать свои сообщения
Вы не можете удалять свои сообщения
Вы не можете голосовать в опросах
Вы не можете прикреплять файлы к сообщениям
Вы не можете скачивать файлы