Искатель воды / The Water Diviner (Рассел Кроу / Russell Crowe) [2014, Австралия, Турция, США, драма, военный, BDRip 1080p] Dub (iTunes) + Sub Rus, Eng + Original Eng

Ответить на тему
 
Автор Сообщение

user ®

Стаж: 7 лет 7 месяцев

Сообщений: 20008

Пост Пост: #1 от 30-Июл-2015 19:33

[Цитировать]

Искатель воды / The Water Diviner
Страна: Австралия, Турция, США
Студия: Fear of God Films, Hopscotch Features, RatPac Entertainment
Жанр: драма, военный
Год выпуска: 2014
Продолжительность: 01:51:10
Перевод: Профессиональный (дублированный) iTunes
Cубтитры: Rus, Eng
Оригинальная аудиодорожка: английский
Режиссер: Рассел Кроу / Russell Crowe
В ролях: Рассел Кроу, Джай Кортни, Ольга Куриленко, Изабель Лукас, Дэймон Херриман, Жаклин МакКензи, Джем Йылмаз, Йылмаз Эрдоган, Меган Гэйл, Райан Корр
Описание: Действие фильма разворачивается в 1919 году. Это история об австралийце, который отправляется на полуостров Галлиполи, где во время Первой мировой войны проходила ожесточенная битва, чтобы разыскать тела своих погибших сыновей. И неожиданно для себя он обретает надежду там, где и не мыслил ее найти.

Тип релиза: BDRip 1080p
Контейнер: MKV
Видео: MPEG-4 AVC, 13.3 Mбит/с, 1920x804, 24,000 fps
Аудио: Rus, AC3, 384 kb/s (6 ch), 48 kHz
Аудио 2: Eng, DTS, 1510 kb/s (6 ch), 48 kHz
Формат субтитров: softsub (SRT)
MediaInfo
x264 [info]: frame I:1464 Avg QP:15.44 size:222480
x264 [info]: frame P:36694 Avg QP:16.41 size:101035
x264 [info]: frame B:121929 Avg QP:17.88 size: 60235
x264 [info]: consecutive B-frames: 2.8% 4.5% 11.9% 13.0% 15.3% 46.1% 3.6% 0.6% 0.6% 0.7% 0.9%
Format : Matroska
Format version : Version 4 / Version 2
File size : 12.1 GiB
Duration : 1h 51mn
Overall bit rate : 15.5 Mbps
Movie name : Искатель воды. (Tonik)
Encoded date : UTC 2015-07-29 07:51:02
Writing application : mkvmerge v7.1.0 ('Good Love') 64bit built on Jul 27 2014 13:06:55
Writing library : libebml v1.3.0 + libmatroska v1.4.1
_STATISTICS_WRITING_APP : mkvmerge v7.1.0 ('Good Love') 64bit built on Jul 27 2014 13:06:55
_STATISTICS_WRITING_DATE_UTC : 2015-07-29 07:51:02
_STATISTICS_TAGS : BPS DURATION NUMBER_OF_FRAMES NUMBER_OF_BYTES
DURATION : 01:47:55.833000000
NUMBER_OF_FRAMES : 1053
NUMBER_OF_BYTES : 29914
Video
ID : 1
Format : AVC
Format/Info : Advanced Video Codec
Format profile : High@L4.1
Format settings, CABAC : Yes
Format settings, ReFrames : 5 frames
Codec ID : V_MPEG4/ISO/AVC
Duration : 1h 51mn
Bit rate : 13.3 Mbps
Width : 1 920 pixels
Height : 804 pixels
Display aspect ratio : 2.40:1
Frame rate mode : Constant
Frame rate : 24.000 fps
Color space : YUV
Chroma subsampling : 4:2:0
Bit depth : 8 bits
Scan type : Progressive
Bits/(Pixel*Frame) : 0.360
Stream size : 10.4 GiB (86%)
Writing library : x264 core 144 r0+2574 9abcd72 t_mod_Custom [8-bit@all X86_64]
Encoding settings : cabac=1 / ref=5 / deblock=1:-3:-3 / analyse=0x3:0x133 / me=umh / subme=10 / psy=1 / fade_compensate=0.00 / psy_rd=0.98:0.00 / mixed_ref=1 / me_range=48 / chroma_me=1 / trellis=2 / 8x8dct=1 / cqm=0 / deadzone=21,11 / fast_pskip=1 / chroma_qp_offset=-2 / threads=16 / lookahead_threads=4 / sliced_threads=0 / nr=0 / decimate=1 / interlaced=0 / bluray_compat=0 / constrained_intra=0 / fgo=0 / bframes=10 / b_pyramid=2 / b_adapt=2 / b_bias=0 / direct=3 / weightb=1 / open_gop=0 / weightp=2 / keyint=250 / keyint_min=24 / scenecut=40 / intra_refresh=0 / rc_lookahead=150 / rc=crf / mbtree=0 / crf=17.0000 / qcomp=0.65 / qpmin=0:0:0 / qpmax=69:69:69 / qpstep=4 / vbv_maxrate=50000 / vbv_bufsize=62500 / crf_max=0.0 / nal_hrd=none / filler=0 / ip_ratio=1.30 / pb_ratio=1.20 / aq=4:0.75 / aq-sensitivity=10.00 / aq-factor=1.00:1.00:1.00 / aq2=0 / aq3=0
Language : English
Default : Yes
Forced : No
DURATION : 01:51:10.292000000
NUMBER_OF_FRAMES : 160087
NUMBER_OF_BYTES : 11377489225
_STATISTICS_WRITING_APP : mkvmerge v7.1.0 ('Good Love') 64bit built on Jul 27 2014 13:06:55
_STATISTICS_WRITING_DATE_UTC : 2015-07-29 07:51:02
_STATISTICS_TAGS : BPS DURATION NUMBER_OF_FRAMES NUMBER_OF_BYTES
Audio #1
ID : 2
Format : AC-3
Format/Info : Audio Coding 3
Mode extension : CM (complete main)
Format settings, Endianness : Big
Codec ID : A_AC3
Duration : 1h 51mn
Bit rate mode : Constant
Bit rate : 384 Kbps
Channel(s) : 6 channels
Channel positions : Front: L C R, Side: L R, LFE
Sampling rate : 48.0 KHz
Bit depth : 16 bits
Compression mode : Lossy
Stream size : 305 MiB (2%)
Language : Russian
Default : Yes
Forced : No
Audio #2
ID : 3
Format : DTS
Format/Info : Digital Theater Systems
Mode : 16
Format settings, Endianness : Big
Codec ID : A_DTS
Duration : 1h 51mn
Bit rate mode : Constant
Bit rate : 1 509 Kbps
Channel(s) : 6 channels
Channel positions : Front: L C R, Side: L R, LFE
Sampling rate : 48.0 KHz
Bit depth : 24 bits
Compression mode : Lossy
Stream size : 1.17 GiB (10%)
Language : English
Default : No
Forced : No
Text #1
ID : 4
Format : UTF-8
Codec ID : S_TEXT/UTF8
Codec ID/Info : UTF-8 Plain Text
Language : Russian
Default : No
Forced : No
Text #2
ID : 5
Format : UTF-8
Codec ID : S_TEXT/UTF8
Codec ID/Info : UTF-8 Plain Text
Language : English
Default : No
Forced : No
Text #3
ID : 6
Format : UTF-8
Codec ID : S_TEXT/UTF8
Codec ID/Info : UTF-8 Plain Text
Title : SDH
Language : English
Default : No
Forced : No
Menu
00:00:00.000 : en:Chapter 01
00:05:15.500 : en:Chapter 02
00:09:00.208 : en:Chapter 03
00:13:08.208 : en:Chapter 04
00:16:47.708 : en:Chapter 05
00:21:29.000 : en:Chapter 06
00:26:53.167 : en:Chapter 07
00:31:16.208 : en:Chapter 08
00:36:21.458 : en:Chapter 09
00:40:11.875 : en:Chapter 10
00:50:31.625 : en:Chapter 11
00:57:19.958 : en:Chapter 12
01:03:33.458 : en:Chapter 13
01:07:55.792 : en:Chapter 14
01:15:38.292 : en:Chapter 15
01:19:05.250 : en:Chapter 16
01:23:31.458 : en:Chapter 17
01:30:25.292 : en:Chapter 18
01:40:02.375 : en:Chapter 19
01:45:05.000 : en:Chapter 20
Скриншоты
Скачать

Скачать торрент!

Как скачивать? · Что такое торрент? · Рейтинг и ограничения

Сайт не распространяет и не хранит электронные версии произведений, а лишь предоставляет доступ к создаваемому пользователями каталогу ссылок на торрент-файлы, которые содержат только списки хеш-сумм

[Профиль] [ЛС]
Показать сообщения:    
Ответить на тему

Текущее время: Сегодня 08:07

Часовой пояс: GMT + 4



Вы не можете начинать темы
Вы не можете отвечать на сообщения
Вы не можете редактировать свои сообщения
Вы не можете удалять свои сообщения
Вы не можете голосовать в опросах
Вы не можете прикреплять файлы к сообщениям
Вы не можете скачивать файлы