Рождение / Birth (Джонатан Глейзер / Jonathan Glazer) [2004, США, Великобритания, Франция, Германия, триллер, драма, мелодрама, детектив, WEB-DL 720p] MVO (R5) + MVO + DVO (Tycoon) + Original (Eng) + Sub (Rus, Eng)

Ответить на тему
 
Автор Сообщение

user ®

Стаж: 7 лет 7 месяцев

Сообщений: 20008

Пост Пост: #1 от 30-Июл-2015 19:33

[Цитировать]

Рождение / Birth
Год выпуска: 2004
Страна: США, Великобритания, Франция, Германия
Жанр: триллер, драма, мелодрама, детектив
Продолжительность: 01:40:10
Перевод №1: профессиональный многоголосый закадровый (R5)
Перевод №2: профессиональный многоголосый закадровый
Перевод №3: профессиональный двухголосый закадровый (Tycoon)
Cубтитры: русские, английские
Оригинальная аудиодорожка: английская
Оглавление: 21 англоязычная глава
Режиссёр: Джонатан Глейзер /Jonathan Glazer/
В ролях: Николь Кидман /Nicole Kidman/, Камерон Брайт /Cameron Bright/, Дэнни Хьюстон /Danny Huston/, Лорен Бэколл /Lauren Bacall/, Элисон Эллиотт /Alison Elliott/, Арлисс Ховард /Arliss Howard/, Майкл Десотелс /Michael Desautels/, Энн Хеч /Anne Heche/, Петер Стормаре /Peter Stormare/
Описание:
Через 10 лет после смерти любимого мужа жительница Нью-Йорка, Анна, вновь решается выйти замуж. Однако она попадает в странную ситуацию, став объектом страсти 10-летнего мальчика, утверждающего, что он является реинкарнацией ее мужа.
Дополнительная информация:
IMDB User Rating→: 6.1/10 (28,247 votes)
Рейтинг фильма КиноПоиск.Ru→: 6.547 (2560 голосов)
  • Многоканальную дорогу Tycoon'а пришлось сдуть до стерео по причине наличия речи во фронтах;
  • Оригинальная дорогая взята с DVD R1.
    Качество: WEB-DL (thnx alfablac)
    Контейнер: MKV
    Видеопоток: 1280x692p, 23.976 fps, x264 ~3954 kbps
    Аудиопоток №1 (RUS): DD 5.1, 48 kHz, 448 kbps | профессиональный многоголосый закадровый (R5)
    Аудиопоток №2 (RUS): DD 5.1, 48 kHz, 448 kbps | профессиональный многоголосый закадровый
    Аудиопоток №3 (RUS): DD 2.0, 48 kHz, 224 kbps | профессиональный двухголосый закадровый (Tycoon)
    Аудиопоток №4 (ENG): DD 5.1, 48 kHz, 448 kbps
    Субтитры №1 (RUS): SRT/UTF8 | R5
    Субтитры №2 (RUS): SRT/UTF8 | @PD
    Субтитры №3 (ENG): SRT/UTF8
    Сэмпл: Яндекс.Диск→, multi-up→, nekaka→, sendspace→
    MediaInfo
General
Unique ID                                : 178067660588067416749540375762834215451 (0x85F6957EC0E23AE08E5BB4D0338AD21B)
Complete name                            : Birth.2004.720p.WEB-DL.H.264.DD.SRT.mkv
Format                                   : Matroska
Format version                           : Version 4 / Version 2
File size                                : 3.87 GiB
Duration                                 : 1h 40mn
Overall bit rate                         : 5 525 Kbps
Movie name                               : Birth (2004) 720p WEB-DL
Encoded date                             : UTC 2015-07-29 13:16:46
Writing application                      : mkvmerge v7.8.0 ('River Man') 64bit built on Mar 27 2015 16:31:37
Writing library                          : libebml v1.3.1 + libmatroska v1.4.2
DURATION                                 : 01:31:21.469000000
NUMBER_OF_FRAMES                         : 713
NUMBER_OF_BYTES                          : 19832
_STATISTICS_WRITING_APP                  : mkvmerge v7.8.0 ('River Man') 64bit built on Mar 27 2015 16:31:37
_STATISTICS_WRITING_DATE_UTC             : 2015-07-29 13:16:46
_STATISTICS_TAGS                         : BPS DURATION NUMBER_OF_FRAMES NUMBER_OF_BYTES
Video
ID                                       : 1
Format                                   : AVC
Format/Info                              : Advanced Video Codec
Format profile                           : High@L3.1
Format settings, CABAC                   : No
Format settings, ReFrames                : 2 frames
Codec ID                                 : V_MPEG4/ISO/AVC
Duration                                 : 1h 40mn
Bit rate                                 : 3 847 Kbps
Width                                    : 1 280 pixels
Height                                   : 692 pixels
Display aspect ratio                     : 1.85:1
Frame rate mode                          : Constant
Frame rate                               : 23.976 fps
Color space                              : YUV
Chroma subsampling                       : 4:2:0
Bit depth                                : 8 bits
Scan type                                : Progressive
Bits/(Pixel*Frame)                       : 0.181
Stream size                              : 2.69 GiB (70%)
Title                                    : 1280x692, 23.976 fps, x264 ~3954 kbps
Language                                 : English
Default                                  : Yes
Forced                                   : No
Color range                              : Limited
Color primaries                          : BT.709
Transfer characteristics                 : BT.709
Matrix coefficients                      : BT.709
Audio #1
ID                                       : 2
Format                                   : AC-3
Format/Info                              : Audio Coding 3
Mode extension                           : CM (complete main)
Format settings, Endianness              : Big
Codec ID                                 : A_AC3
Duration                                 : 1h 40mn
Bit rate mode                            : Constant
Bit rate                                 : 448 Kbps
Channel(s)                               : 6 channels
Channel positions                        : Front: L C R, Side: L R, LFE
Sampling rate                            : 48.0 KHz
Bit depth                                : 16 bits
Compression mode                         : Lossy
Stream size                              : 321 MiB (8%)
Title                                    : RUS MVO R5 DD 5.1, 48 kHz, 448 kbps
Language                                 : Russian
Default                                  : Yes
Forced                                   : No
Audio #2
ID                                       : 3
Format                                   : AC-3
Format/Info                              : Audio Coding 3
Mode extension                           : CM (complete main)
Format settings, Endianness              : Big
Codec ID                                 : A_AC3
Duration                                 : 1h 40mn
Bit rate mode                            : Constant
Bit rate                                 : 448 Kbps
Channel(s)                               : 6 channels
Channel positions                        : Front: L C R, Side: L R, LFE
Sampling rate                            : 48.0 KHz
Bit depth                                : 16 bits
Compression mode                         : Lossy
Stream size                              : 321 MiB (8%)
Title                                    : RUS MVO DD 5.1, 48 kHz, 448 kbps
Language                                 : Russian
Default                                  : No
Forced                                   : No
Audio #3
ID                                       : 4
Format                                   : AC-3
Format/Info                              : Audio Coding 3
Mode extension                           : CM (complete main)
Format settings, Endianness              : Big
Codec ID                                 : A_AC3
Duration                                 : 1h 40mn
Bit rate mode                            : Constant
Bit rate                                 : 224 Kbps
Channel(s)                               : 2 channels
Channel positions                        : Front: L R
Sampling rate                            : 48.0 KHz
Bit depth                                : 16 bits
Compression mode                         : Lossy
Stream size                              : 160 MiB (4%)
Title                                    : RUS DVO Tycoon DD 2.0, 48 kHz, 224 kbps
Language                                 : Russian
Default                                  : No
Forced                                   : No
Audio #4
ID                                       : 5
Format                                   : AC-3
Format/Info                              : Audio Coding 3
Mode extension                           : CM (complete main)
Format settings, Endianness              : Big
Codec ID                                 : A_AC3
Duration                                 : 1h 40mn
Bit rate mode                            : Constant
Bit rate                                 : 448 Kbps
Channel(s)                               : 6 channels
Channel positions                        : Front: L C R, Side: L R, LFE
Sampling rate                            : 48.0 KHz
Bit depth                                : 16 bits
Compression mode                         : Lossy
Stream size                              : 321 MiB (8%)
Title                                    : ENG DD 5.1, 48 kHz, 448 kbps
Language                                 : English
Default                                  : No
Forced                                   : No
Text #1
ID                                       : 6
Format                                   : UTF-8
Codec ID                                 : S_TEXT/UTF8
Codec ID/Info                            : UTF-8 Plain Text
Title                                    : RUS R5 SRT
Language                                 : Russian
Default                                  : No
Forced                                   : No
Text #2
ID                                       : 7
Format                                   : UTF-8
Codec ID                                 : S_TEXT/UTF8
Codec ID/Info                            : UTF-8 Plain Text
Title                                    : RUS @PD SRT
Language                                 : Russian
Default                                  : No
Forced                                   : No
Text #3
ID                                       : 8
Format                                   : UTF-8
Codec ID                                 : S_TEXT/UTF8
Codec ID/Info                            : UTF-8 Plain Text
Title                                    : ENG SRT
Language                                 : English
Default                                  : No
Forced                                   : No
Menu
00:00:00.000                             : en:Main Titles
00:04:25.000                             : en:Ten Years Later
00:10:37.000                             : en:Sean
00:16:54.000                             : en:He said I shouldn't marry you
00:20:29.000                             : en:Could it be true?
00:23:26.000                             : en:You're hurting me
00:29:15.000                             : en:Your stupid son
00:33:11.000                             : en:The Park
00:36:14.000                             : en:Testing Sean
00:40:54.000                             : en:No more lying
00:44:47.000                             : en:Clara and Clifford
00:51:18.000                             : en:Providing for Ana
00:56:43.000                             : en:I'm looking at my wife
01:02:04.000                             : en:That's not Sean
01:07:29.000                             : en:Tell Sean to go home
01:11:29.000                             : en:Everything is all right
01:13:47.000                             : en:I'm your lover
01:18:35.000                             : en:I believe him
01:26:12.000                             : en:Peace
01:29:01.000                             : en:May
01:33:57.000                             : en:End Credits
Скриншоты
Скачать

Скачать торрент!

Как скачивать? · Что такое торрент? · Рейтинг и ограничения

Сайт не распространяет и не хранит электронные версии произведений, а лишь предоставляет доступ к создаваемому пользователями каталогу ссылок на торрент-файлы, которые содержат только списки хеш-сумм

[Профиль] [ЛС]
Показать сообщения:    
Ответить на тему

Текущее время: Сегодня 19:55

Часовой пояс: GMT + 4



Вы не можете начинать темы
Вы не можете отвечать на сообщения
Вы не можете редактировать свои сообщения
Вы не можете удалять свои сообщения
Вы не можете голосовать в опросах
Вы не можете прикреплять файлы к сообщениям
Вы не можете скачивать файлы