В одиночку / Одиночка / En solitaire (Кристоф Оффенштейн / Christophe Offenstein) [2013, Франция, приключения, драма, BDRip 720p] VO (Project Web Money) + Sub Rus, Eng + Original Fre

Ответить на тему
 
Автор Сообщение

user ®

Стаж: 7 лет 7 месяцев

Сообщений: 20008

Пост Пост: #1 от 30-Июл-2015 04:06

[Цитировать]

В одиночку / En solitaire
Страна: Франция
Жанр: приключения, драма
Год выпуска: 2013
Продолжительность: 1:40:45
Перевод: Одноголосый закадровый Project_Web_Money по переводу ancha-a
Cубтитры: русские (ancha-a), английские, французские на английскую речь
Оригинальная аудиодорожка: французский
Режиссер: Кристоф Оффенштейн / Christophe Offenstein
В ролях: Франсуа Клюзе, Сами Сегир, Гийом Кане, Карин Ванасс, Вирджиния Эфира, Жан-Поль Рув
Описание: Янн Кермадек спонтанно отправляется в кругосветное путешествие на парусной регате "Венди Глоб" в одиночку, вместо попавшего в аварию напарника. Его дела идут неплохо - яхтсмен успешно преодолевает трудности одиночного плаванья и имеет все шансы стать победителем гонок. Но неожиданный пассажир, шестнадцатилетний Мано, тайно прокравшийся на лодку в надежде добраться до Франции, ставит под угрозу дальнейшее участие Янна в соревнованиях. Как поступит главный герой в этой непростой ситуации? Об этом, собственно, фильм.
Доп. информация: Oгромная благодарность ancha-a за перевод очень хорошего фильма!!!

Сэмпл: http://sendfile.su/1141532
Тип релиза: BDRip 720p (DON)
Контейнер: MKV
Видео: MPEG-4 AVC, 1280x544, 9486 кбит/сек, 23.976 fps
Аудио: 48 kHz, DTS, 3/2 (L,C,R,l,r) + LFE ch, ~1510.00 kbps avg VO Project_Web_Money
Аудио 2: 48 kHz, DTS, 3/2 (L,C,R,l,r) + LFE ch, ~1510.00 kbps avg original
Формат субтитров: softsub (SRT)
MediaInfo
В_одиночку_2013_VO_Project_Web_Money.720p.BluRay.DTS.x264-DON.mkv
Формат : Matroska
Версия формата : Version 2
Размер файла : 8,98 Гбайт
Продолжительность : 1 ч. 40 м.
Общий поток : 12,8 Мбит/сек
Дата кодирования : UTC 2015-07-26 07:23:34
Программа кодирования : mkvmerge v5.0.1 ('Es ist Sommer') built on Oct 9 2011 11:55:43
Библиотека кодирования : libebml v1.2.2 + libmatroska v1.3.0
Видео
Идентификатор : 1
Формат : AVC
Формат/Информация : Advanced Video Codec
Профиль формата : High@L4.1
Параметр CABAC формата : Да
Параметр ReFrames формата : 12 кадров
Идентификатор кодека : V_MPEG4/ISO/AVC
Продолжительность : 1 ч. 40 м.
Битрейт : 9486 Кбит/сек
Ширина : 1280 пикс.
Высота : 544 пикс.
Соотношение сторон : 2,35:1
Частота кадров : 23,976 кадр/сек
Цветовое пространство : YUV
Подвыборка цветности : 4:2:0
Битовая глубина : 8 бит
Тип развёртки : Прогрессивная
Бит/(Пиксели*Кадры) : 0.568
Размер потока : 6,68 Гбайт (74%)
Библиотека кодирования : x264 core 142 r2409kMod d6b4e63
Настройки программы : cabac=1 / ref=12 / deblock=1:-3:-3 / analyse=0x3:0x133 / me=tesa / subme=10 / psy=1 / fade_compensate=0.00 / psy_rd=1.05:0.00 / mixed_ref=1 / me_range=32 / chroma_me=1 / trellis=2 / 8x8dct=1 / cqm=0 / deadzone=21,11 / fast_pskip=0 / chroma_qp_offset=-2 / threads=12 / lookahead_threads=2 / sliced_threads=0 / nr=0 / decimate=1 / interlaced=0 / bluray_compat=0 / constrained_intra=0 / fgo=0 / bframes=7 / b_pyramid=2 / b_adapt=2 / b_bias=0 / direct=3 / weightb=1 / open_gop=0 / weightp=2 / keyint=241 / keyint_min=23 / scenecut=40 / intra_refresh=0 / rc_lookahead=60 / rc=crf / mbtree=0 / crf=16.6000 / qcomp=0.75 / qpmin=0 / qpmax=69 / qpstep=4 / vbv_maxrate=50000 / vbv_bufsize=62500 / crf_max=0.0 / nal_hrd=none / filler=0 / ip_ratio=1.30 / pb_ratio=1.20 / aq=1:0.70 / zones=138524,144958,q=26
Язык : English
Аудио #1
Идентификатор : 2
Формат : DTS
Формат/Информация : Digital Theater Systems
Идентификатор кодека : A_DTS
Продолжительность : 1 ч. 40 м.
Вид битрейта : Постоянный
Битрейт : 1510 Кбит/сек
Каналы : 6 каналов
Расположение каналов : Front: L C R, Side: L R, LFE
Частота : 48,0 КГц
Битовая глубина : 24 бит
Метод сжатия : С потерями
Размер потока : 1,06 Гбайт (12%)
Заголовок : VO Project_Web_Money
Язык : Russian
Аудио #2
Идентификатор : 3
Формат : DTS
Формат/Информация : Digital Theater Systems
Идентификатор кодека : A_DTS
Продолжительность : 1 ч. 40 м.
Вид битрейта : Постоянный
Битрейт : 1510 Кбит/сек
Каналы : 6 каналов
Расположение каналов : Front: L C R, Side: L R, LFE
Частота : 48,0 КГц
Битовая глубина : 24 бит
Метод сжатия : С потерями
Размер потока : 1,06 Гбайт (12%)
Язык : French
Текст #1
Идентификатор : 4
Формат : UTF-8
Идентификатор кодека : S_TEXT/UTF8
Идентификатор кодека/Информация : UTF-8 Plain Text
Заголовок : Sub ancha-a
Язык : Russian
Текст #2
Идентификатор : 5
Формат : UTF-8
Идентификатор кодека : S_TEXT/UTF8
Идентификатор кодека/Информация : UTF-8 Plain Text
Язык : English
Текст #3
Идентификатор : 6
Формат : UTF-8
Идентификатор кодека : S_TEXT/UTF8
Идентификатор кодека/Информация : UTF-8 Plain Text
Язык : French
Меню
00:00:00.000 : :00:00:00.000
00:07:27.864 : :00:07:27.864
00:14:57.730 : :00:14:57.730
00:24:16.246 : :00:24:16.246
00:32:13.807 : :00:32:13.807
00:43:07.126 : :00:43:07.126
00:53:50.269 : :00:53:50.269
00:59:25.103 : :00:59:25.103
01:08:32.817 : :01:08:32.817
01:19:54.456 : :01:19:54.456
01:25:47.893 : :01:25:47.893
01:36:19.273 : :01:36:19.273
Скриншоты
Скачать

Скачать торрент!

Как скачивать? · Что такое торрент? · Рейтинг и ограничения

Сайт не распространяет и не хранит электронные версии произведений, а лишь предоставляет доступ к создаваемому пользователями каталогу ссылок на торрент-файлы, которые содержат только списки хеш-сумм

[Профиль] [ЛС]
Показать сообщения:    
Ответить на тему

Текущее время: Сегодня 18:05

Часовой пояс: GMT + 4



Вы не можете начинать темы
Вы не можете отвечать на сообщения
Вы не можете редактировать свои сообщения
Вы не можете удалять свои сообщения
Вы не можете голосовать в опросах
Вы не можете прикреплять файлы к сообщениям
Вы не можете скачивать файлы