Закоулки Дели / Прогулка по Дели / Однажды в Дели / Delhi Belly (Абхинай Део / Abhinay Deo) [2011, Индия, Комедия, криминал, драма, DVDRip] MVO (SDI Media) + Original

Ответить на тему
 
Автор Сообщение

user ®

Стаж: 12 лет

Сообщений: 15092

Пост Пост: #1 от 30-Июл-2015 01:00

[Цитировать]

Закоулки Дели / Прогулка по Дели / Однажды в Дели / Delhi Belly
Страна: Индия
Жанр: Комедия, криминал, драма
Год выпуска: 2011
Продолжительность: 01:42:45
Перевод: Профессиональный (многоголосый закадровый) SDI Media
Cубтитры: нет
Оригинальная аудиодорожка: хинди
Режиссер: Абхинай Део / Abhinay Deo
В ролях: Имран Кхан, Вир Дас, Кунаал Рой Капур, Шехназ Трисурьявала, Пурна Джаганнатхан, Ким Бодния, Пареш Ганатра, Виджай Рааз
Описание: Трое друзей жили не тужили в Дели, пока подруга одного из них Сония не попросила передать пакет с неизвестной начинкой по указанному адресу. Тут-то и началась неразбериха, закружившая героев в водовороте событий, и изменившая их в некотором смысле.
Доп. информация: Запись и сведение звука: oktober (спасибо!)
Сэмпл: http://multi-up.com/1060586
Качество видео: DVDRip
Формат видео: AVI
Видео: XviD build 50, 720x304 (2.37:1), 23.976 fps, 1447 kbps avg
Аудио: Rus AC3 Dolby Digital, 48 kHz, 2/0 (L,R) ch, 192.00 kbps
Аудио 2: Hindi AC3 Dolby Digital, 48 kHz, 3/2 (L,C,R,l,r) + LFE ch, 384 kbps
MediaInfo
General
Complete name : F:\Zakoulki.Deli.2011.DVDRip.avi
Format : AVI
Format/Info : Audio Video Interleave
File size : 1.46 GiB
Duration : 1h 42mn
Overall bit rate : 2 039 Kbps
Writing application : VirtualDubMod 1.5.10.2 (build 2540/release)
Writing library : VirtualDubMod build 2540/release
Video
ID : 0
Format : MPEG-4 Visual
Format profile : AdvancedSimple@L5
Format settings, BVOP : Yes
Format settings, QPel : No
Format settings, GMC : No warppoints
Format settings, Matrix : Custom
Codec ID : XVID
Codec ID/Hint : XviD
Duration : 1h 42mn
Bit rate : 1 449 Kbps
Width : 720 pixels
Height : 304 pixels
Display aspect ratio : 2.35
Frame rate : 23.976 fps
Resolution : 24 bits
Colorimetry : 4:2:0
Scan type : Progressive
Bits/(Pixel*Frame) : 0.276
Stream size : 1.04 GiB (71%)
Writing library : XviD 1.2.1 (UTC 2008-12-04)
Audio #1
ID : 1
Format : AC-3
Format/Info : Audio Coding 3
Codec ID : 2000
Duration : 1h 42mn
Bit rate mode : Constant
Bit rate : 192 Kbps
Channel(s) : 2 channels
Channel positions : L R
Sampling rate : 48.0 KHz
Stream size : 141 MiB (9%)
Alignment : Split accross interleaves
Interleave, duration : 42 ms (1.00 video frame)
Interleave, preload duration : 500 ms
Audio #2
ID : 2
Format : AC-3
Format/Info : Audio Coding 3
Codec ID : 2000
Duration : 1h 42mn
Bit rate mode : Constant
Bit rate : 384 Kbps
Channel(s) : 6 channels
Channel positions : Front: L C R, Surround: L R, LFE
Sampling rate : 48.0 KHz
Stream size : 282 MiB (19%)
Alignment : Split accross interleaves
Interleave, duration : 42 ms (1.00 video frame)
Interleave, preload duration : 500 ms
Скриншот c названием фильма Скриншоты
Скачать

Скачать торрент! Закоулки Дели / Прогулка по Дели / Однажды в Дели / Delhi Belly (Абхинай Део / Abhinay Deo) [2011, Индия, Комедия, криминал, драма, DVDRip] MVO (SDI Media) + Original

Как скачивать? · Что такое торрент? · Рейтинг и ограничения

Сайт не распространяет и не хранит электронные версии произведений, а лишь предоставляет доступ к создаваемому пользователями каталогу ссылок на торрент-файлы, которые содержат только списки хеш-сумм

[Профиль] [ЛС]
Показать сообщения:    
Ответить на тему

Текущее время: Сегодня 19:34

Часовой пояс: GMT + 4



Вы не можете начинать темы
Вы не можете отвечать на сообщения
Вы не можете редактировать свои сообщения
Вы не можете удалять свои сообщения
Вы не можете голосовать в опросах
Вы не можете прикреплять файлы к сообщениям
Вы не можете скачивать файлы