Мир, созданный без изъяна / The World Made Straight (Дэвид Буррис / David Burris) [2015, США, драма, BDRip 720p] MVO + Sub Rus, Eng + Original Eng

Ответить на тему
 
Автор Сообщение

user ®

Стаж: 7 лет 7 месяцев

Сообщений: 20008

Пост Пост: #1 от 30-Июл-2015 01:00

[Цитировать]

Мир, созданный без изъяна / The World Made Straight
Страна: США
Жанр: драма
Год выпуска: 2015
Продолжительность: 01:59:21
Перевод: Профессиональный (многоголосый закадровый)
Cубтитры: Rus, Eng
Оригинальная аудиодорожка: английский
Режиссер: Дэвид Буррис / David Burris
В ролях: Ноа Уайли, Джереми Ирвин, Минка Келли, Эделейд Клеменс, Стив Эрл, Хэйли Джоэл Осмент, Сандра Эллис Лэфферти, Маркус Хестер, Диана Ленска, Стивен Геведон
Описание: Семнадцатилетний Трэвис однажды летом забредает в лес, на частную территорию около его дома в Северной Каролине, и обнаруживает целую рощу марихуаны, после чего попадает в медвежий капкан. Проведя в ловушке несколько часов, он, наконец, освобожден местным фермером, хозяином делянки. Однако с этого момента он уже не может спокойно относиться к тем порокам, которыми пропитано это небольшое сельское сообщество в Аппалачах.
Вскоре Трэвис уезжает из родительского дома и поселяется у учителя Леонарда, который живет в трейлере на окраине города, балуется наркотиками и читает журналы об американской гражданской войне. Судьбы этих людей переплетаются, когда ужасное прошлое и болезненное настоящее городка приводит к ожесточенному сведению счетов, в котором с одной стороны оказывается замешан фермер с марихуаной, а с другой стороны эхом отдается кровавая резня времен гражданской войны, которая продолжает разделять местное сообщество.

Тип релиза: BDRip 720p
Контейнер: MKV
Видео: MPEG-4 AVC, 4385 Кбит/с, 1280x534, 23,976 fps
Аудио: Rus, AC3, 384 kb/s (2 ch), 48 kHz
Аудио 2: Eng, AC3, 448 kb/s (6 ch), 48 kHz
Формат субтитров: softsub (SRT)
MediaInfo
Format : Matroska
Format version : Version 4 / Version 2
File size : 4.44 GiB
Duration : 1h 59mn
Overall bit rate : 5 323 Kbps
Movie name : Мир, созданный без изъяна. (Tonik)
Encoded date : UTC 2015-07-28 07:25:20
Writing application : mkvmerge v7.1.0 ('Good Love') 64bit built on Jul 27 2014 13:06:55
Writing library : libebml v1.3.0 + libmatroska v1.4.1
_STATISTICS_WRITING_APP : mkvmerge v7.1.0 ('Good Love') 64bit built on Jul 27 2014 13:06:55
_STATISTICS_WRITING_DATE_UTC : 2015-07-28 07:25:20
_STATISTICS_TAGS : BPS DURATION NUMBER_OF_FRAMES NUMBER_OF_BYTES
DURATION : 01:53:36.774000000
NUMBER_OF_FRAMES : 1046
NUMBER_OF_BYTES : 43446
Video
ID : 1
Format : AVC
Format/Info : Advanced Video Codec
Format profile : High@L4.1
Format settings, CABAC : Yes
Format settings, ReFrames : 12 frames
Codec ID : V_MPEG4/ISO/AVC
Duration : 1h 59mn
Bit rate : 4 385 Kbps
Width : 1 280 pixels
Height : 534 pixels
Display aspect ratio : 2.40:1
Frame rate mode : Constant
Frame rate : 23.976 fps
Color space : YUV
Chroma subsampling : 4:2:0
Bit depth : 8 bits
Scan type : Progressive
Bits/(Pixel*Frame) : 0.268
Stream size : 3.66 GiB (82%)
Writing library : x264 core 142 r2431+42 c69a006 tMod [8-bit@all X86_64]
Encoding settings : cabac=1 / ref=12 / deblock=1:-3:-3 / analyse=0x3:0x133 / me=umh / subme=11 / psy=1 / fade_compensate=0.00 / psy_rd=1.10:0.00 / mixed_ref=1 / me_range=24 / chroma_me=1 / trellis=2 / 8x8dct=1 / cqm=0 / deadzone=21,11 / fast_pskip=0 / chroma_qp_offset=-2 / threads=24 / lookahead_threads=4 / sliced_threads=0 / nr=0 / decimate=0 / interlaced=0 / bluray_compat=0 / constrained_intra=0 / fgo=0 / bframes=7 / b_pyramid=2 / b_adapt=2 / b_bias=0 / direct=3 / weightb=1 / open_gop=0 / weightp=2 / keyint=250 / keyint_min=23 / scenecut=40 / intra_refresh=0 / rc=crf / mbtree=0 / crf=16.5000 / qcomp=0.65 / qpmin=0:0:0 / qpmax=69:69:69 / qpstep=4 / ip_ratio=1.20 / pb_ratio=1.10 / aq=3:0.75 / aq-sensitivity=10.00 / aq-factor=1.00:1.00:1.00 / aq2=0 / aq3=0
Language : English
Default : Yes
Forced : No
_STATISTICS_WRITING_APP : mkvmerge v7.1.0 ('Good Love') 64bit built on Jul 27 2014 13:06:55
_STATISTICS_WRITING_DATE_UTC : 2015-07-28 07:25:20
_STATISTICS_TAGS : BPS DURATION NUMBER_OF_FRAMES NUMBER_OF_BYTES
DURATION : 01:59:21.154000000
NUMBER_OF_FRAMES : 171696
NUMBER_OF_BYTES : 4018064134
Audio #1
ID : 2
Format : AC-3
Format/Info : Audio Coding 3
Mode extension : CM (complete main)
Format settings, Endianness : Big
Codec ID : A_AC3
Duration : 1h 59mn
Bit rate mode : Constant
Bit rate : 384 Kbps
Channel(s) : 2 channels
Channel positions : Front: L R
Sampling rate : 48.0 KHz
Bit depth : 16 bits
Compression mode : Lossy
Stream size : 328 MiB (7%)
Language : Russian
Default : Yes
Forced : No
Audio #2
ID : 3
Format : AC-3
Format/Info : Audio Coding 3
Mode extension : CM (complete main)
Format settings, Endianness : Big
Codec ID : A_AC3
Duration : 1h 59mn
Bit rate mode : Constant
Bit rate : 448 Kbps
Channel(s) : 6 channels
Channel positions : Front: L C R, Side: L R, LFE
Sampling rate : 48.0 KHz
Bit depth : 16 bits
Compression mode : Lossy
Stream size : 382 MiB (8%)
Language : English
Default : No
Forced : No
Text #1
ID : 4
Format : UTF-8
Codec ID : S_TEXT/UTF8
Codec ID/Info : UTF-8 Plain Text
Language : Russian
Default : No
Forced : No
Text #2
ID : 5
Format : UTF-8
Codec ID : S_TEXT/UTF8
Codec ID/Info : UTF-8 Plain Text
Title : SDH
Language : English
Default : No
Forced : No
Menu
00:00:00.000 : en:00:00:00.000
00:10:07.857 : en:00:10:07.857
00:23:29.658 : en:00:23:29.658
00:31:37.145 : en:00:31:37.145
00:42:33.760 : en:00:42:33.760
00:53:12.564 : en:00:53:12.564
01:02:31.790 : en:01:02:31.790
01:14:10.613 : en:01:14:10.613
01:27:30.912 : en:01:27:30.912
01:36:43.172 : en:01:36:43.172
01:47:32.696 : en:01:47:32.696
01:54:18.226 : en:01:54:18.226
Скриншоты
Скачать

Скачать торрент!

Как скачивать? · Что такое торрент? · Рейтинг и ограничения

Сайт не распространяет и не хранит электронные версии произведений, а лишь предоставляет доступ к создаваемому пользователями каталогу ссылок на торрент-файлы, которые содержат только списки хеш-сумм

[Профиль] [ЛС]
Показать сообщения:    
Ответить на тему

Текущее время: Сегодня 07:01

Часовой пояс: GMT + 4



Вы не можете начинать темы
Вы не можете отвечать на сообщения
Вы не можете редактировать свои сообщения
Вы не можете удалять свои сообщения
Вы не можете голосовать в опросах
Вы не можете прикреплять файлы к сообщениям
Вы не можете скачивать файлы