Хищники / Predators (Нимрод Антал / Nimrod Antal) [2010, США, фантастика, боевик, триллер, приключения, BDRip 720p] Dub (BD CEE) + Dub (Ukr) + AVO (Гаврилов) + VO (Строев) + Sub (Rus, Eng, Ukr) + Original Eng

Ответить на тему
 
Автор Сообщение

user ®

Стаж: 7 лет 7 месяцев

Сообщений: 20008

Пост Пост: #1 от 30-Июл-2015 01:00

[Цитировать]

-Хищники / Predators
«Они - самые опасные убийцы на планете. Но это не наша планета...»
-- & -- Страна: США
Студия: 20th Century Fox Film Corporation | Davis Entertainment | Troublemaker Studios
Жанр: фантастика, боевик, триллер, приключения
Год выпуска: 2010
Продолжительность: 01:46:53
Перевод: Профессиональный (дублированный) BD CEE
+ Авторский (одноголосый закадровый) А.Гаврилов
+ Одноголосый закадровый Д.Строев
Cубтитры: RUS (Full), UKR (Full) ENG (Full)
Оригинальная аудиодорожка: English
Навигация по главам: присутствует - 28 глав--Режиссер:
Нимрод Антал / Nimród Antal--В ролях:
Эдриан Броуди (Royce), Тофер Грейс (Edwin), Алиси Брага (Isabelle), Уолтон Гоггинс (Stans), Олег Тактаров (Nikolai), Лоренс Фишбёрн (Noland), Дэнни Трехо (Cuchillo), Луис Одзава Чангчьен (Hanzo), Махершалалхашбаз Али (Mombasa), Кэри Джонс (Tracker Predator).--Описание:
В непроходимых джунглях планеты расы Хищников главный герой фильма Ройс встречается с мексиканцем, русским спецназовцем (Олег Тактаров), девушкой-снайпером, чернокожим Момбазу из секретного отряда, гангстером, ниндзей Ханзо и тихим скромным парнем, который оказывается серийным убийцей. Вместе им предстоит противостоять местным обитателям этой планеты - самой беспощадной расе, которая пригласила их для охоты.--Download Sample-Тип релиза: [url=http://***/forum/viewtopic.php?t=3197975]BD[/url]-Rip 720p | thx: >>> HANSMER
Контейнер: MKV--Видео: 1 280x544 at 23.976 fps, x264 @ L4.1, crf, ~8117 kbps avg
Аудио#1: 48.0 kHz, DTS, 3/2 (L,C,R,l,r) + LFE ch, ~768 kbps | BD CEE
Аудио#2: 48.0 kHz, AC3 Dolby Digital, 3/2 (L,C,R,l,r) + LFE ch, ~448 kbps | UKR BD CEE
Аудио#3: 48.0 kHz, DTS, 3/2 (L,C,R,l,r) + LFE ch, ~1536 kbps | А.Гаврилов
Аудио#4: 48.0 kHz, DTS, 3/2 (L,C,R,l,r) + LFE ch, ~1536 kbps | Д.Строев
Аудио#5: 48.0 kHz, DTS, 3/2 (L,C,R,l,r) + LFE ch, ~1536 kbps | Original
Аудио#6: 48 kHz, AC3, 2/0 (L,R) ch, ~224.00 kbps avg | Комментарии Роберта Родригеса и Нимрода Антала
Формат субтитров: softsub (SRT / ASS*)
-
-
Цитата:
  • За дорожку с одноголосым переводом Дениса Строева большое спасибо HANSMER. Нецензурная лексика!
MI
Общее
Уникальный идентификатор : 249011395753956647613682976389004641171 (0xBB55D9B1097A4120AD1C49A81D6DC393)
Полное имя : D:\Фильмы\Predators 2010.BD-Rip.BluRay.720р.3xRus.Ukr.Eng (1).mkv
Формат : Matroska
Версия формата : Version 4 / Version 2
Размер файла : 10,7 Гбайт
Продолжительность : 1 ч. 46 м.
Общий поток : 14,4 Мбит/сек
Дата кодирования : UTC 2015-07-28 11:52:30
Программа кодирования : mkvmerge v6.1.0 ('Old Devil') built on Mar 4 2013 09:10:42
Библиотека кодирования : libebml v1.3.0 + libmatroska v1.4.0
Attachment : Yes
Видео
Идентификатор : 1
Формат : AVC
Формат/Информация : Advanced Video Codec
Профиль формата : High@L4.1
Параметр CABAC формата : Да
Параметр ReFrames формата : 11 кадров
Идентификатор кодека : V_MPEG4/ISO/AVC
Продолжительность : 1 ч. 46 м.
Битрейт : 8117 Кбит/сек
Ширина : 1280 пикселей
Высота : 544 пикселя
Соотношение сторон : 2,35:1
Режим частоты кадров : Постоянный
Частота кадров : 23,976 кадра/сек
Цветовое пространство : YUV
Субдискретизация насыщенности : 4:2:0
Битовая глубина : 8 бит
Тип развёртки : Прогрессивная
Бит/(Пиксели*Кадры) : 0.486
Размер потока : 6,06 Гбайт (56%)
Заголовок : Хищники / Predators 2010 720р Rip by >> [B.A.T.U.S.A.Y.]
Библиотека кодирования : x264 core 146 r2538kMod 121396c
Настройки программы : cabac=1 / ref=11 / deblock=1:-2:-1 / analyse=0x3:0x113 / me=umh / subme=11 / psy=1 / fade_compensate=0.00 / psy_rd=1.00:0.00 / mixed_ref=1 / me_range=64 / chroma_me=1 / trellis=2 / 8x8dct=1 / cqm=0 / deadzone=21,11 / fast_pskip=0 / chroma_qp_offset=-2 / threads=6 / lookahead_threads=1 / sliced_threads=0 / nr=0 / decimate=1 / interlaced=0 / bluray_compat=0 / constrained_intra=0 / fgo=0 / bframes=16 / b_pyramid=2 / b_adapt=2 / b_bias=0 / direct=3 / weightb=1 / open_gop=0 / weightp=2 / keyint=230 / keyint_min=23 / scenecut=40 / intra_refresh=0 / rc_lookahead=80 / rc=crf / mbtree=0 / crf=16.5100 / qcomp=0.65 / qpmin=0 / qpmax=69 / qpstep=4 / vbv_maxrate=50000 / vbv_bufsize=62500 / crf_max=0.0 / nal_hrd=none / filler=0 / ip_ratio=1.40 / pb_ratio=1.30 / aq=3:0.62
Язык : English
Default : Нет
Forced : Нет
Аудио #1
Идентификатор : 2
Формат : DTS
Формат/Информация : Digital Theater Systems
Режим : 16
Параметр Endianness формата : Big
Идентификатор кодека : A_DTS
Продолжительность : 1 ч. 46 м.
Вид битрейта : Постоянный
Битрейт : 768 Кбит/сек
Каналы : 6 каналов
Расположение каналов : Front: L C R, Side: L R, LFE
Частота : 48,0 КГц
Битовая глубина : 24 бит
Метод сжатия : С потерями
Размер потока : 587 Мбайт (5%)
Заголовок : DTS 5.1 @ 768 kbps - DUB CEE
Язык : Russian
Default : Да
Forced : Нет
Аудио #2
Идентификатор : 3
Формат : AC-3
Формат/Информация : Audio Coding 3
Расширение режима : CM (complete main)
Параметр Endianness формата : Big
Идентификатор кодека : A_AC3
Продолжительность : 1 ч. 46 м.
Вид битрейта : Постоянный
Битрейт : 448 Кбит/сек
Каналы : 6 каналов
Расположение каналов : Front: L C R, Side: L R, LFE
Частота : 48,0 КГц
Битовая глубина : 16 бит
Метод сжатия : С потерями
Размер потока : 342 Мбайт (3%)
Заголовок : DTS 5.1 @ 448 kbps - DUB CEE
Язык : Ukrainian
Default : Нет
Forced : Нет
Аудио #3
Идентификатор : 4
Формат : DTS
Формат/Информация : Digital Theater Systems
Режим : 16
Параметр Endianness формата : Big
Идентификатор кодека : A_DTS
Продолжительность : 1 ч. 46 м.
Вид битрейта : Постоянный
Битрейт : 1509 Кбит/сек
Каналы : 6 каналов
Расположение каналов : Front: L C R, Side: L R, LFE
Частота : 48,0 КГц
Битовая глубина : 24 бит
Метод сжатия : С потерями
Размер потока : 1,13 Гбайт (11%)
Заголовок : DTS 5.1 @ 1536 kbps - AVO, Gavrilov
Язык : Russian
Default : Нет
Forced : Нет
Аудио #4
Идентификатор : 5
Формат : DTS
Формат/Информация : Digital Theater Systems
Режим : 16
Параметр Endianness формата : Big
Идентификатор кодека : A_DTS
Продолжительность : 1 ч. 46 м.
Вид битрейта : Постоянный
Битрейт : 1509 Кбит/сек
Каналы : 6 каналов
Расположение каналов : Front: L C R, Side: L R, LFE
Частота : 48,0 КГц
Битовая глубина : 24 бит
Метод сжатия : С потерями
Размер потока : 1,13 Гбайт (11%)
Заголовок : DTS 5.1 @ 1536 kbps - AVO, Stroev
Язык : Russian
Default : Нет
Forced : Нет
Аудио #5
Идентификатор : 6
Формат : DTS
Формат/Информация : Digital Theater Systems
Режим : 16
Параметр Endianness формата : Big
Идентификатор кодека : A_DTS
Продолжительность : 1 ч. 46 м.
Вид битрейта : Постоянный
Битрейт : 1509 Кбит/сек
Каналы : 6 каналов
Расположение каналов : Front: L C R, Side: L R, LFE
Частота : 48,0 КГц
Битовая глубина : 24 бит
Метод сжатия : С потерями
Размер потока : 1,13 Гбайт (11%)
Заголовок : DTS 5.1 @ 1536 kbps - Original
Язык : English
Default : Нет
Forced : Нет
Аудио #6
Идентификатор : 7
Формат : AC-3
Формат/Информация : Audio Coding 3
Расширение режима : CM (complete main)
Параметр Endianness формата : Big
Идентификатор кодека : A_AC3
Продолжительность : 1 ч. 46 м.
Вид битрейта : Постоянный
Битрейт : 224 Кбит/сек
Каналы : 2 канала
Расположение каналов : Front: L R
Частота : 48,0 КГц
Битовая глубина : 16 бит
Метод сжатия : С потерями
Размер потока : 171 Мбайт (2%)
Заголовок : АС3 2.0 @ 224 kbps - Comments by Robert Rodriguez and Nimrod Antal
Язык : English
Default : Нет
Forced : Нет
Текст #1
Идентификатор : 8
Формат : UTF-8
Идентификатор кодека : S_TEXT/UTF8
Идентификатор кодека/Информация : UTF-8 Plain Text
Заголовок : Full
Язык : Russian
Default : Нет
Forced : Нет
Текст #2
Идентификатор : 9
Формат : UTF-8
Идентификатор кодека : S_TEXT/UTF8
Идентификатор кодека/Информация : UTF-8 Plain Text
Заголовок : Full
Язык : Ukrainian
Default : Нет
Forced : Нет
Текст #3
Идентификатор : 10
Формат : ASS
Идентификатор кодека : S_TEXT/ASS
Идентификатор кодека/Информация : Advanced Sub Station Alpha
Метод сжатия : Без потерь
Заголовок : Full
Язык : English
Default : Нет
Forced : Нет
Текст #4
Идентификатор : 11
Формат : UTF-8
Идентификатор кодека : S_TEXT/UTF8
Идентификатор кодека/Информация : UTF-8 Plain Text
Заголовок : Comments
Язык : Russian
Default : Нет
Forced : Нет
Меню
00:00:00.000 : :00:00:00.000
00:05:27.035 : :00:05:27.035
00:07:57.394 : :00:07:57.394
00:13:33.521 : :00:13:33.521
00:17:26.587 : :00:17:26.587
00:20:02.410 : :00:20:02.410
00:23:46.300 : :00:23:46.300
00:26:19.119 : :00:26:19.119
00:31:34.518 : :00:31:34.518
00:34:56.511 : :00:34:56.511
00:38:24.719 : :00:38:24.719
00:41:57.056 : :00:41:57.056
00:46:12.979 : :00:46:12.979
00:49:57.786 : :00:49:57.786
00:53:27.955 : :00:53:27.955
00:57:43.126 : :00:57:43.126
01:02:11.853 : :01:02:11.853
01:05:48.903 : :01:05:48.903
01:09:38.758 : :01:09:38.758
01:14:16.994 : :01:14:16.994
01:16:25.539 : :01:16:25.539
01:19:26.929 : :01:19:26.929
01:21:34.473 : :01:21:34.473
01:23:51.902 : :01:23:51.902
01:27:33.707 : :01:27:33.707
01:30:48.234 : :01:30:48.234
01:34:12.564 : :01:34:12.564
01:41:17.697 : :01:41:17.697
Скриншоты log x264
x264 [info]: frame I:1040 Avg QP:14.30 size:130187
x264 [info]: frame P:29986 Avg QP:15.76 size: 73596
x264 [info]: frame B:122733 Avg QP:17.97 size: 35760
x264 [info]: consecutive B-frames: 2.2% 2.2% 4.6% 14.7% 13.6% 39.6% 5.6% 1.6% 1.9% 2.0% 1.9% 0.8% 2.5% 5.1% 0.8% 0.4% 0.4%
x264 [info]: ref P L0: 38.1% 8.1% 19.6% 8.3% 7.3% 4.5% 4.8% 2.5% 2.4% 1.8% 2.2% 0.3% 0.0%
x264 [info]: ref B L0: 61.0% 15.8% 8.3% 4.7% 3.2% 2.6% 2.1% 1.3% 0.7% 0.3%
x264 [info]: ref B L1: 89.7% 10.3%
x264 [info]: kb/s:8396.87
encoded 8396.87 kb/s
Comparison
Source----------Rip----------[url=http://***/forum/viewtopic.php?t=3218574]HiDt[/url]----------HDClub----------[url=http://***/forum/viewtopic.php?t=3176625]WiKi[/url]




Скачать

Скачать торрент!

Как скачивать? · Что такое торрент? · Рейтинг и ограничения

Сайт не распространяет и не хранит электронные версии произведений, а лишь предоставляет доступ к создаваемому пользователями каталогу ссылок на торрент-файлы, которые содержат только списки хеш-сумм

[Профиль] [ЛС]
Показать сообщения:    
Ответить на тему

Текущее время: Сегодня 10:06

Часовой пояс: GMT + 4



Вы не можете начинать темы
Вы не можете отвечать на сообщения
Вы не можете редактировать свои сообщения
Вы не можете удалять свои сообщения
Вы не можете голосовать в опросах
Вы не можете прикреплять файлы к сообщениям
Вы не можете скачивать файлы