Параллельный мир / Клёвый мир / Крутой мир / Cool World (Ральф Бакши / Ralph Bakshi) [1992, США, мультфильм, фэнтези, HDTVRip 720p] 3x DVO (Премьер Видео Фильм, Paramount Channel) + MVO (СТС) + AVO (Михалёв) + Sub Rus, Eng + Original Eng

Ответить на тему
 
Автор Сообщение

user ®

Стаж: 7 лет 7 месяцев

Сообщений: 20008

Пост Пост: #1 от 30-Июл-2015 01:00

[Цитировать]

Торрент перезалит, добавлен перевод Paramount Channel.-Параллельный мир / Клёвый мир / Крутой мир / Cool World
Страна: США
Жанр: мультфильм, фэнтези, комедия
Год выпуска: 1992
Продолжительность: 01:37:27
Перевод 1: Профессиональный (двухголосый закадровый)
Перевод 2: Профессиональный (многоголосый закадровый) СТС
Перевод 3: Профессиональный (двухголосый закадровый) Премьер Видео Фильм
Перевод 4: Профессиональный (двухголосый закадровый) Paramount Channel
Перевод 5: Авторский (одноголосый закадровый) Алексей Михалёв
Cубтитры: русские, английские
Оригинальная аудиодорожка: английский
Режиссер: Ральф Бакши / Ralph Bakshi
В ролях: Брэд Питт, Ким Бейсингер, Гэбриел Бирн, Мишель Абрамс, Дирдри О’Коннелл, Янни Бренн, Уильям Френкфазер, Грег Коллинз, Морис ЛаМарш, Джои Камен...
Описание: Автор серии комиксов художник Джек Дибс оказывается в придуманном им мире и теряет голову от собственного персонажа, чрезвычайно сексапильной Холли Вуд. Холли сгорает от желания превратиться из мультяшки в реальную женщину, а единственный путь к этому — переспать с живым мужчиной.
Поначалу Дибс думает, что сходит с ума, но присутствие в рисованном мире другого человека, детектива Френка Харриса, посланного на поиски пропавшего художника, заставляет его поверить в реальность происходящего…
Доп. информация: За запись перевода СТС спасибо xfiles. За оцифровку VHS от Премьер Видео Фильм спасибо Home Video. За перевод Paramount Channel спасибо smit009. В переводе Михалёва устранён рассинхрон. Работа со звуком - Dreven.
Сэмпл: http://multi-up.com/1060552
Тип релиза: HDTVRip 720p [url=http://***/forum/viewtopic.php?t=2998910]Исходник[/url]
Контейнер: MKV
Видео: 1280x720 (16:9), 25.000 fps, AVC, ~5800 Kbps, 0.252 bits/pixel
Аудио 1: Russian, 48.0 KHz, AC3, 6 ch, 448 Kbps
Аудио 2: Russian, 48.0 KHz, AC3, 2 ch, 224 Kbps - СТС
Аудио 3: Russian, 48.0 KHz, AC3, 2 ch, 192 Kbps - Премьер Видео Фильм
Аудио 4: Russian, 48.0 KHz, AC3, 2 ch, 192 Kbps - Paramount Channel
Аудио 5: Russian, 48.0 KHz, AC3, 2 ch, 192 Kbps - Алексей Михалёв
Аудио 6: English, 48.0 KHz, AC3, 6 ch, 448 Kbps

Сравнение
[url=http://***/forum/viewtopic.php?t=3505078]http://***/forum/viewtopic.php?t=3505078[/url]
Mirmekiy | Source | Dreven



MediaInfo
General
Unique ID : 193400022107060246438707105598135131588 (0x917F7D48256F304FB0E0F6481260DDC4)
Complete name : D:\Cool World. HDTVRip 720p.mkv
Format : Matroska
Format version : Version 4 / Version 2
File size : 5.10 GiB
Duration : 1h 37mn
Overall bit rate : 7 498 Kbps
Encoded date : UTC 2015-07-29 13:03:10
Writing application : mkvmerge v8.1.0 ('Psychedelic Postcard') 64bit
Writing library : libebml v1.3.1 + libmatroska v1.4.2
DURATION : 01:37:27.424000000
NUMBER_OF_FRAMES : 182732
NUMBER_OF_BYTES : 140338176
_STATISTICS_WRITING_APP : mkvmerge v8.1.0 ('Psychedelic Postcard') 64bit
_STATISTICS_WRITING_DATE_UT : 2015-07-29 13:03:10
_STATISTICS_TAGS : BPS DURATION NUMBER_OF_FRAMES NUMBER_OF_BYTES
Video
ID : 1
Format : AVC
Format/Info : Advanced Video Codec
Format profile : High@L4
Format settings, CABAC : Yes
Format settings, ReFrames : 9 frames
Codec ID : V_MPEG4/ISO/AVC
Duration : 1h 37mn
Bit rate : 5 800 Kbps
Width : 1 280 pixels
Height : 720 pixels
Display aspect ratio : 16:9
Frame rate mode : Constant
Frame rate : 25.000 fps
Color space : YUV
Chroma subsampling : 4:2:0
Bit depth : 8 bits
Scan type : Progressive
Bits/(Pixel*Frame) : 0.252
Stream size : 3.85 GiB (75%)
Writing library : x264 core 146 r2538 121396c
Encoding settings : cabac=1 / ref=9 / deblock=1:-1:-1 / analyse=0x3:0x133 / me=umh / subme=10 / psy=1 / psy_rd=1.00:0.10 / mixed_ref=1 / me_range=32 / chroma_me=1 / trellis=2 / 8x8dct=1 / cqm=0 / deadzone=21,11 / fast_pskip=0 / chroma_qp_offset=-3 / threads=6 / lookahead_threads=1 / sliced_threads=0 / nr=0 / decimate=1 / interlaced=0 / bluray_compat=0 / constrained_intra=0 / bframes=10 / b_pyramid=2 / b_adapt=2 / b_bias=0 / direct=3 / weightb=1 / open_gop=0 / weightp=2 / keyint=250 / keyint_min=25 / scenecut=40 / intra_refresh=0 / rc_lookahead=50 / rc=2pass / mbtree=1 / bitrate=5800 / ratetol=1.0 / qcomp=0.60 / qpmin=0 / qpmax=69 / qpstep=4 / cplxblur=20.0 / qblur=0.5 / ip_ratio=1.40 / aq=1:1.00
Language : English
Default : Yes
Forced : No
Audio #1
ID : 2
Format : AC-3
Format/Info : Audio Coding 3
Mode extension : CM (complete main)
Format settings, Endianness : Big
Codec ID : A_AC3
Duration : 1h 37mn
Bit rate mode : Constant
Bit rate : 448 Kbps
Channel(s) : 6 channels
Channel positions : Front: L C R, Side: L R, LFE
Sampling rate : 48.0 KHz
Compression mode : Lossy
Stream size : 312 MiB (6%)
Language : Russian
Default : Yes
Forced : No
Audio #2
ID : 3
Format : AC-3
Format/Info : Audio Coding 3
Mode extension : CM (complete main)
Format settings, Endianness : Big
Codec ID : A_AC3
Duration : 1h 37mn
Bit rate mode : Constant
Bit rate : 224 Kbps
Channel(s) : 2 channels
Channel positions : Front: L R
Sampling rate : 48.0 KHz
Compression mode : Lossy
Stream size : 156 MiB (3%)
Title : СТС
Language : Russian
Default : No
Forced : No
Audio #3
ID : 4
Format : AC-3
Format/Info : Audio Coding 3
Mode extension : CM (complete main)
Format settings, Endianness : Big
Codec ID : A_AC3
Duration : 1h 37mn
Bit rate mode : Constant
Bit rate : 192 Kbps
Channel(s) : 2 channels
Channel positions : Front: L R
Sampling rate : 48.0 KHz
Compression mode : Lossy
Stream size : 134 MiB (3%)
Title : Премьер Видео Фильм
Language : Russian
Default : No
Forced : No
Audio #4
ID : 5
Format : AC-3
Format/Info : Audio Coding 3
Mode extension : CM (complete main)
Format settings, Endianness : Big
Codec ID : A_AC3
Duration : 1h 37mn
Bit rate mode : Constant
Bit rate : 192 Kbps
Channel(s) : 2 channels
Channel positions : Front: L R
Sampling rate : 48.0 KHz
Compression mode : Lossy
Stream size : 134 MiB (3%)
Title : Paramount Channel
Language : Russian
Default : No
Forced : No
Audio #5
ID : 6
Format : AC-3
Format/Info : Audio Coding 3
Mode extension : CM (complete main)
Format settings, Endianness : Big
Codec ID : A_AC3
Duration : 1h 37mn
Bit rate mode : Constant
Bit rate : 192 Kbps
Channel(s) : 2 channels
Channel positions : Front: L R
Sampling rate : 48.0 KHz
Compression mode : Lossy
Stream size : 134 MiB (3%)
Title : Алексей Михалёв
Language : Russian
Default : No
Forced : No
Audio #6
ID : 7
Format : AC-3
Format/Info : Audio Coding 3
Mode extension : CM (complete main)
Format settings, Endianness : Big
Codec ID : A_AC3
Duration : 1h 37mn
Bit rate mode : Constant
Bit rate : 448 Kbps
Channel(s) : 6 channels
Channel positions : Front: L C R, Side: L R, LFE
Sampling rate : 48.0 KHz
Compression mode : Lossy
Stream size : 312 MiB (6%)
Language : English
Default : No
Forced : No
Text #1
ID : 8
Format : UTF-8
Codec ID : S_TEXT/UTF8
Codec ID/Info : UTF-8 Plain Text
Language : Russian
Default : No
Forced : No
Text #2
ID : 9
Format : UTF-8
Codec ID : S_TEXT/UTF8
Codec ID/Info : UTF-8 Plain Text
Language : English
Default : No
Forced : No
Menu
00:00:00.000 : :Chapter 01
00:00:07.000 : :Chapter 02
00:06:51.500 : :Chapter 03
00:10:55.533 : :Chapter 04
00:22:11.900 : :Chapter 05
00:32:01.933 : :Chapter 06
00:40:06.834 : :Chapter 07
00:47:16.034 : :Chapter 08
00:53:54.635 : :Chapter 09
01:01:03.768 : :Chapter 10
01:13:12.768 : :Chapter 11
01:22:29.502 : :Chapter 12
01:35:40.569 : :Chapter 13
Скриншоты
Скачать

Скачать торрент!

Как скачивать? · Что такое торрент? · Рейтинг и ограничения

Сайт не распространяет и не хранит электронные версии произведений, а лишь предоставляет доступ к создаваемому пользователями каталогу ссылок на торрент-файлы, которые содержат только списки хеш-сумм

[Профиль] [ЛС]
Показать сообщения:    
Ответить на тему

Текущее время: Сегодня 23:51

Часовой пояс: GMT + 4



Вы не можете начинать темы
Вы не можете отвечать на сообщения
Вы не можете редактировать свои сообщения
Вы не можете удалять свои сообщения
Вы не можете голосовать в опросах
Вы не можете прикреплять файлы к сообщениям
Вы не можете скачивать файлы