Сестрички Бэнгер / The Banger Sisters (Боб Долман / Bob Dolman) [2002, США, комедия, HDTV 1080i] 3x MVO + Sub Rus, Eng + Original Eng

Ответить на тему
 
Автор Сообщение

user ®

Стаж: 7 лет 7 месяцев

Сообщений: 20008

Пост Пост: #1 от 29-Июл-2015 18:48

[Цитировать]

Сестрички Бэнгер / The Banger Sisters
Страна: США
Жанр: комедия
Год выпуска: 2002
Продолжительность: 01:33:45
Перевод: Профессиональный (многоголосый закадровый) 1 канал
Перевод 2: Профессиональный (многоголосый закадровый) DVD
Перевод 3: Профессиональный (многоголосый закадровый)
Cубтитры: русские, английские
Оригинальная аудиодорожка: английский
Режиссер: Боб Долман / Bob Dolman
В ролях: Голди Хоун, Сьюзен Сарандон, Джеффри Раш, Сэл Лопес, Эрика Кристенсен, Робин Томас Гроссман, Ева Амурри, Андре Уэйр, Адам Томей
Описание: В конце 60-х эта парочка была известна не меньше популярных рок — музыкантов. Но с тех пор, когда их называли «Cёстры Бангер», минуло более двух десятков лет. Как и следовало ожидать, они изменились.
Одна полностью адаптировалась к действительности, остепенилась и обуржуазилась превратившись в зажиточную светскую даму, а вторая, практически не мутировала, оставшись такой же, если не более заводной, работая официанткой горя желанием вновь пережить своё дикое прошлое… Встреча состоялась…
Доп. информация: Запись с канала Первый HD. Из видеоряда удалены все рекламные вставки и вставки с названием фильма. По сравнению с DVD картинка обрезана с боков до 16:9, но четче http://screenshotcomparison.com/comparison/136706. Видеоряд короче аудио за счет ускоренных/обрезанных титров.
Сэмпл: http://multi-up.com/1060254
Тип релиза: HDTV 1080i
Контейнер: MKV
Видео: AVC, 1920x1080 (16:9), 25.000 fps, 11.1 Mbps (0.214 bit/pixel)
Аудио: AC-3, 48.0 KHz, 2 ch, 192 Kbps, CBR (Russian) - 1 канал
Аудио 2: AC-3, 48.0 KHz, 6 ch, 448 Kbps, CBR (Russian) - DVD
Аудио 3: AC-3, 48.0 KHz, 2 ch, 192 Kbps, CBR (Russian)
Аудио 4: AC-3, 48.0 KHz, 6 ch, 448 Kbps, CBR (English)
Формат субтитров: softsub (SRT)
MediaInfo
Общее
Уникальный идентификатор : 186177527677385945187716815602089030880 (0x8C107CD03F0C5EB4BC4F2BD87FA574E0)
Полное имя : K:\Сестрички Бэнгер.mkv
Формат : Matroska
Версия формата : Version 2
Размер файла : 8,26 Гбайт
Продолжительность : 1 ч. 33 м.
Общий поток : 12,6 Мбит/сек
Дата кодирования : UTC 2015-07-27 14:28:16
Программа кодирования : mkvmerge v8.2.0 ('World of Adventure') 64bit
Библиотека кодирования : libebml v1.3.1 + libmatroska v1.4.2
Attachements : The_Banger_Sisters_R1.jpg
Видео
Идентификатор : 1
Формат : AVC
Формат/Информация : Advanced Video Codec
Профиль формата : Main@L4
Параметр CABAC формата : Да
Параметр ReFrames формата : 3 кадра
Идентификатор кодека : V_MPEG4/ISO/AVC
Продолжительность : 1 ч. 33 м.
Битрейт : 11,1 Мбит/сек
Ширина : 1920 пикселей
Высота : 1080 пикселей
Соотношение сторон : 16:9
Режим частоты кадров : Постоянный
Частота кадров : 25,000 кадров/сек
Стандарт вещания : Component
Цветовое пространство : YUV
Субдискретизация насыщенности : 4:2:0
Битовая глубина : 8 бит
Тип развёртки : Чересстрочная
Порядок развёртки : Верхнее поле первое
Бит/(Пиксели*Кадры) : 0.214
Размер потока : 7,25 Гбайт (88%)
Заголовок : Сестрички Бэнгер / The Banger Sisters (2002)
Язык : English
Default : Да
Forced : Нет
Цветовой диапазон : Limited
Основные цвета : BT.709
Характеристики трансфера : BT.709
Коэффициенты матрицы : BT.709
Аудио #1
Идентификатор : 2
Формат : AC-3
Формат/Информация : Audio Coding 3
Расширение режима : CM (complete main)
Параметр Endianness формата : Big
Идентификатор кодека : A_AC3
Продолжительность : 1 ч. 33 м.
Вид битрейта : Постоянный
Битрейт : 192 Кбит/сек
Каналы : 2 канала
Расположение каналов : Front: L R
Частота : 48,0 КГц
Метод сжатия : С потерями
Задержка видео : -19 мс.
Размер потока : 129 Мбайт (2%)
Заголовок : Профессиональный (многоголосый закадровый) 1 канал
Язык : Russian
Default : Да
Forced : Нет
Аудио #2
Идентификатор : 3
Формат : AC-3
Формат/Информация : Audio Coding 3
Расширение режима : CM (complete main)
Параметр Endianness формата : Big
Идентификатор кодека : A_AC3
Продолжительность : 1 ч. 33 м.
Вид битрейта : Постоянный
Битрейт : 448 Кбит/сек
Каналы : 6 каналов
Расположение каналов : Front: L C R, Side: L R, LFE
Частота : 48,0 КГц
Метод сжатия : С потерями
Задержка видео : -19 мс.
Размер потока : 300 Мбайт (4%)
Заголовок : Профессиональный (многоголосый закадровый) DVD
Язык : Russian
Default : Нет
Forced : Нет
Аудио #3
Идентификатор : 4
Формат : AC-3
Формат/Информация : Audio Coding 3
Расширение режима : CM (complete main)
Параметр Endianness формата : Big
Идентификатор кодека : A_AC3
Продолжительность : 1 ч. 33 м.
Вид битрейта : Постоянный
Битрейт : 192 Кбит/сек
Каналы : 2 канала
Расположение каналов : Front: L R
Частота : 48,0 КГц
Метод сжатия : С потерями
Задержка видео : -19 мс.
Размер потока : 129 Мбайт (2%)
Заголовок : Профессиональный (многоголосый закадровый)
Язык : Russian
Default : Нет
Forced : Нет
Аудио #4
Идентификатор : 5
Формат : AC-3
Формат/Информация : Audio Coding 3
Расширение режима : CM (complete main)
Параметр Endianness формата : Big
Идентификатор кодека : A_AC3
Продолжительность : 1 ч. 33 м.
Вид битрейта : Постоянный
Битрейт : 448 Кбит/сек
Каналы : 6 каналов
Расположение каналов : Front: L C R, Side: L R, LFE
Частота : 48,0 КГц
Метод сжатия : С потерями
Задержка видео : -19 мс.
Размер потока : 300 Мбайт (4%)
Язык : English
Default : Нет
Forced : Нет
Текст #1
Идентификатор : 6
Формат : UTF-8
Идентификатор кодека : S_TEXT/UTF8
Идентификатор кодека/Информация : UTF-8 Plain Text
Язык : Russian
Default : Да
Forced : Нет
Текст #2
Идентификатор : 7
Формат : UTF-8
Идентификатор кодека : S_TEXT/UTF8
Идентификатор кодека/Информация : UTF-8 Plain Text
Язык : English
Default : Нет
Forced : Нет
Скриншоты
Скачать

Скачать торрент!

Как скачивать? · Что такое торрент? · Рейтинг и ограничения

Сайт не распространяет и не хранит электронные версии произведений, а лишь предоставляет доступ к создаваемому пользователями каталогу ссылок на торрент-файлы, которые содержат только списки хеш-сумм

[Профиль] [ЛС]
Показать сообщения:    
Ответить на тему

Текущее время: Сегодня 17:47

Часовой пояс: GMT + 4



Вы не можете начинать темы
Вы не можете отвечать на сообщения
Вы не можете редактировать свои сообщения
Вы не можете удалять свои сообщения
Вы не можете голосовать в опросах
Вы не можете прикреплять файлы к сообщениям
Вы не можете скачивать файлы