Хулиган / Hellion (Кэт Кэндлер / Kat Candler) [2014, США, триллер, драма, BDRip 720p] Dub + Sub Rus, Eng + Original Eng

Ответить на тему
 
Автор Сообщение

user ®

Стаж: 7 лет 7 месяцев

Сообщений: 20008

Пост Пост: #1 от 29-Июл-2015 18:48

[Цитировать]

Хулиган / Hellion
Страна: США
Студия: Across Town Productions, IFC Films, Arts+Labor, Silver Sail Entertainment
Жанр: Триллер, драма
Год выпуска: 2014
Продолжительность: 01:39:01
Перевод: Профессиональный (дублированный)
Cубтитры: Rus, Eng
Оригинальная аудиодорожка: английский
Режиссер: Кэт Кэндлер / Kat Candler
В ролях: Аарон Пол, Джульетт Льюис, Джош Уиггинс, Deke Garner, Dalton Sutton, Camron Owens, Dylan Cole, Джонни Марс, Уолт Робертс, Аннали Джеффрис
Описание: Тринадцатилетний Джейкоб всё сложнее поддаётся контролированию. Делинквентное поведение подростка, помешанного на мотокроссе, вносит разлад в его семью. Ситуация окончательно становится взрывоопасной, когда Джейкоб привлекает своего младшего брата, Уэса, к участию в преступлении. Отец Джейкоба, который ещё не смог до конца оправиться после смерти жены, Холлис почти не следит за своими сыновьями. Когда же вмешиваются службы защиты детей и отправляют Уэса жить к его тёте Пэм, Холлису и Джейкобу приходится осознать свою вину, чтобы вернуть Уэса домой.

Тип релиза: BDRip 720p
Контейнер: MKV
Видео: MPEG-4 AVC, 7029 Кбит/с, 1280x720, 23,976 fps
Аудио: Rus, AC3, 384 kb/s (2 ch), 48 kHz
Аудио 2: Eng, AC3, 640 kb/s (6 ch), 48 kHz
Формат субтитров: softsub (SRT)
MediaInfo
x264 [info]: frame I:823 Avg QP:16.08 size: 86557
x264 [info]: frame P:28916 Avg QP:16.75 size: 62810
x264 [info]: frame B:112712 Avg QP:18.25 size: 30629
x264 [info]: consecutive B-frames: 2.0% 2.8% 7.0% 12.8% 16.7% 32.1% 10.8% 3.3% 8.2% 4.4%
Format : Matroska
Format version : Version 4 / Version 2
File size : 5.68 GiB
Duration : 1h 39mn
Overall bit rate : 8 216 Kbps
Movie name : Хулиган. (Tonik)
Encoded date : UTC 2015-07-28 08:30:12
Writing application : mkvmerge v7.1.0 ('Good Love') 64bit built on Jul 27 2014 13:06:55
Writing library : libebml v1.3.0 + libmatroska v1.4.1
_STATISTICS_WRITING_APP : mkvmerge v7.1.0 ('Good Love') 64bit built on Jul 27 2014 13:06:55
_STATISTICS_WRITING_DATE_UTC : 2015-07-28 08:30:12
_STATISTICS_TAGS : BPS DURATION NUMBER_OF_FRAMES NUMBER_OF_BYTES
DURATION : 01:32:32.550000000
NUMBER_OF_FRAMES : 668
NUMBER_OF_BYTES : 21088
Video
ID : 1
Format : AVC
Format/Info : Advanced Video Codec
Format profile : High@L4.1
Format settings, CABAC : Yes
Format settings, ReFrames : 9 frames
Codec ID : V_MPEG4/ISO/AVC
Duration : 1h 39mn
Bit rate : 7 029 Kbps
Width : 1 280 pixels
Height : 720 pixels
Display aspect ratio : 16:9
Frame rate mode : Constant
Frame rate : 23.976 fps
Color space : YUV
Chroma subsampling : 4:2:0
Bit depth : 8 bits
Scan type : Progressive
Bits/(Pixel*Frame) : 0.318
Stream size : 4.86 GiB (86%)
Writing library : x264 core 142 r2431+42 c69a006 tMod [8-bit@4:2:0 X86_64]
Encoding settings : cabac=1 / ref=9 / deblock=1:-3:-3 / analyse=0x3:0x113 / me=umh / subme=11 / psy=1 / fade_compensate=0.00 / psy_rd=1.00:0.00 / mixed_ref=1 / me_range=32 / chroma_me=1 / trellis=2 / 8x8dct=1 / cqm=0 / deadzone=21,11 / fast_pskip=0 / chroma_qp_offset=-4 / threads=12 / lookahead_threads=2 / sliced_threads=0 / nr=0 / decimate=0 / interlaced=0 / bluray_compat=0 / constrained_intra=0 / fgo=0 / bframes=9 / b_pyramid=2 / b_adapt=2 / b_bias=0 / direct=3 / weightb=1 / open_gop=0 / weightp=2 / keyint=250 / keyint_min=23 / scenecut=40 / intra_refresh=0 / rc_lookahead=60 / rc=crf / mbtree=0 / crf=18.6000 / qcomp=0.80 / qpmin=0:0:0 / qpmax=69:69:69 / qpstep=4 / vbv_maxrate=62500 / vbv_bufsize=78125 / crf_max=0.0 / nal_hrd=none / filler=0 / ip_ratio=1.30 / pb_ratio=1.30 / aq=4:0.80 / aq-sensitivity=10.00 / aq-factor=1.00:1.00:1.00 / aq2=0 / aq3=0
Language : English
Default : Yes
Forced : No
_STATISTICS_WRITING_APP : mkvmerge v7.1.0 ('Good Love') 64bit built on Jul 27 2014 13:06:55
_STATISTICS_WRITING_DATE_UTC : 2015-07-28 08:30:12
_STATISTICS_TAGS : BPS DURATION NUMBER_OF_FRAMES NUMBER_OF_BYTES
DURATION : 01:39:01.394000000
NUMBER_OF_FRAMES : 142451
NUMBER_OF_BYTES : 5339696465
Audio #1
ID : 2
Format : AC-3
Format/Info : Audio Coding 3
Mode extension : CM (complete main)
Format settings, Endianness : Big
Codec ID : A_AC3
Duration : 1h 39mn
Bit rate mode : Constant
Bit rate : 384 Kbps
Channel(s) : 2 channels
Channel positions : Front: L R
Sampling rate : 48.0 KHz
Bit depth : 16 bits
Compression mode : Lossy
Stream size : 272 MiB (5%)
Language : Russian
Default : Yes
Forced : No
Audio #2
ID : 3
Format : AC-3
Format/Info : Audio Coding 3
Mode extension : CM (complete main)
Format settings, Endianness : Big
Codec ID : A_AC3
Duration : 1h 39mn
Bit rate mode : Constant
Bit rate : 640 Kbps
Channel(s) : 6 channels
Channel positions : Front: L C R, Side: L R, LFE
Sampling rate : 48.0 KHz
Bit depth : 16 bits
Compression mode : Lossy
Stream size : 453 MiB (8%)
Language : English
Default : No
Forced : No
Text #1
ID : 4
Format : UTF-8
Codec ID : S_TEXT/UTF8
Codec ID/Info : UTF-8 Plain Text
Language : Russian
Default : No
Forced : No
Text #2
ID : 5
Format : UTF-8
Codec ID : S_TEXT/UTF8
Codec ID/Info : UTF-8 Plain Text
Language : English
Default : No
Forced : No
Menu
00:00:00.000 : en:00:00:00.000
00:11:53.046 : en:00:11:53.046
00:20:18.467 : en:00:20:18.467
00:29:59.589 : en:00:29:59.589
00:39:05.802 : en:00:39:05.802
00:46:51.058 : en:00:46:51.058
00:52:05.998 : en:00:52:05.998
01:02:08.058 : en:01:02:08.058
01:05:58.413 : en:01:05:58.413
01:17:35.985 : en:01:17:35.985
01:25:59.863 : en:01:25:59.863
01:33:51.626 : en:01:33:51.626
Скриншоты
Скачать

Скачать торрент!

Как скачивать? · Что такое торрент? · Рейтинг и ограничения

Сайт не распространяет и не хранит электронные версии произведений, а лишь предоставляет доступ к создаваемому пользователями каталогу ссылок на торрент-файлы, которые содержат только списки хеш-сумм

[Профиль] [ЛС]
Показать сообщения:    
Ответить на тему

Текущее время: Сегодня 20:08

Часовой пояс: GMT + 4



Вы не можете начинать темы
Вы не можете отвечать на сообщения
Вы не можете редактировать свои сообщения
Вы не можете удалять свои сообщения
Вы не можете голосовать в опросах
Вы не можете прикреплять файлы к сообщениям
Вы не можете скачивать файлы