Последний из Могикан / The Last of the Mohicans (Крис Каддингтон / Chris Cuddington) [1975, приключения, семейный, VHSRip] Dub Фортуна-фильм

Ответить на тему
 
Автор Сообщение

user ®

Стаж: 11 лет

Сообщений: 15145

Пост Пост: #1 от 28-Июл-2015 21:09

[Цитировать]

Последний из Могикан / The Last of the Mohicans
Страна: Австралия
Жанр: приключения, семейный
Продолжительность: 00:47:52
Год выпуска: 1975
Перевод: Профессиональный (дублированный) Фортуна-фильм
Русские субтитры: нет
Режиссёр: Крис Каддингтон / Chris Cuddington
Роли озвучивали: Роли озвучивали: Джон Дусетт, Джон Стефенсон, Пол Хехт, Кристина Холлэнд, Кэйси Касэм, Майк Роад, Джоан Ван Арк, Фрэнк Уэлкер
Русский дубляж: Владимир Антоник, ...й
Описание: Знаменитый индейский следопыт Хоки, спасает дочерей капитана Форт Вильема Генри. Он храбрый и мудрый человек, который осознает всю глупость и абсурдность войны. Эта история борьбы индейцев Северной Америки под натиском «цивилизации». Несовпадение культур зачастую ведет к недоверию и ненависти. Если люди когда-нибудь будут жить в мире друг с другом, они должны будут научится уважать друг друга, несмотря на их различая.
Доп. информация: Оцифровка VHS (личный архив) и получение VHSRip alenavova
Эксклюзив для ***. При размещении данного релиза на других сайтах ссылка на автора alenavova обязательна.

Релиз
Семпл: https://yadi.sk/i/AUAfNXHqi8zwP
Качество: VHSRip
Формат: AVI
Видео: 640x480 (1.33:1), 25 fps, XviD build 50 ~1989 kbps avg, 0.26 bit/pixel
Аудио: 48 kHz, AC3 Dolby Digital, 2/0 (L,R) ch, ~192 kbps
Субтитры: отсутствуют
Подробные технические данные
Последний из могикан - The Last of the Mohicans (by alenavova).aviFormat : AVIFormat/Info : Audio Video InterleaveFile size : 750 MiBDuration : 47mn 52sOverall bit rate : 2 192 KbpsMovie name : Последний из могикан - The Last of the Mohicans (by alenavova)Director : by alenavovaWriting application : VirtualDubMod 1.5.10.3 | www.virtualdub-fr.org || (build 2550/release)Copyright : Edich2Comment : ***
VideoID : 0Format : MPEG-4 VisualFormat profile : Advanced Simple@L5Format settings, BVOP : 1Format settings, QPel : NoFormat settings, GMC : No warppointsFormat settings, Matrix : Default (MPEG)Codec ID : XVIDCodec ID/Hint : XviDDuration : 47mn 52sBit rate : 1 990 KbpsWidth : 640 pixelsHeight : 480 pixelsDisplay aspect ratio : 4:3Frame rate : 25.000 fpsColor space : YUVChroma subsampling : 4:2:0Bit depth : 8 bitsScan type : ProgressiveCompression mode : LossyBits/(Pixel*Frame) : 0.259Stream size : 681 MiB (91%)Writing library : XviD 1.2.1 (UTC 2008-12-04)
AudioID : 1Format : AC-3Format/Info : Audio Coding 3Mode extension : CM (complete main)Format settings, Endianness : BigCodec ID : 2000Duration : 47mn 52sBit rate mode : ConstantBit rate : 192 KbpsChannel(s) : 2 channelsChannel positions : Front: L RSampling rate : 48.0 KHzBit depth : 16 bitsCompression mode : LossyStream size : 65.7 MiB (9%)Alignment : Split accross interleavesInterleave, duration : 40 ms (1.00 video frame)Interleave, preload duration : 500 ms
Скриншоты
Скачать

Скачать торрент! Последний из Могикан / The Last of the Mohicans (Крис Каддингтон / Chris Cuddington) [1975, приключения, семейный, VHSRip] Dub Фортуна-фильм

Как скачивать? · Что такое торрент? · Рейтинг и ограничения

Сайт не распространяет и не хранит электронные версии произведений, а лишь предоставляет доступ к создаваемому пользователями каталогу ссылок на торрент-файлы, которые содержат только списки хеш-сумм

[Профиль] [ЛС]
Показать сообщения:    
Ответить на тему

Текущее время: Сегодня 18:58

Часовой пояс: GMT + 4



Вы не можете начинать темы
Вы не можете отвечать на сообщения
Вы не можете редактировать свои сообщения
Вы не можете удалять свои сообщения
Вы не можете голосовать в опросах
Вы не можете прикреплять файлы к сообщениям
Вы не можете скачивать файлы