Вчера, сегодня, завтра / Indru Netru Naalai (Рави Кумар / Ravi Kumar. R) [2015, Индия, Научная фантастика, экшн, комедия, драма, DVDRip] Rus hardsub

Ответить на тему
 
Автор Сообщение

user ®

Стаж: 12 лет

Сообщений: 15092

Пост Пост: #1 от 28-Июл-2015 18:03

[Цитировать]

Вчера, сегодня, завтра / Indru Netru Naalai Страна: Индия
Жанр: Научная фантастика, экшн, комедия, драма
Год выпуска: 2015
Продолжительность: 02:19:08
Перевод: Субтитры
Cубтитры: русские
Оригинальная аудиодорожка: Тамильский
Режиссер: Рави Кумар / Ravi Kumar. R
В ролях: Вишну Вишал, Мия Джордж, Карунакаран, Джаяпракаш, П. Рави Шанкар, Т. М. Картик и др.
Спец. приглашённые: Арья, Рамдосс, Багавати Перумал
Описание: Каждый из нас хоть раз в жизни мечтал прокатиться на машине времени.. но что произойдёт, если в один прекрасный день такая мечта осуществится в жизни простого раздолбая из небогатой семьи? Деньги польются рекой, а любимая девушка падёт к его ногам.. но главное - в погоне за мечтой не потерять голову, ведь игры со временем могут быть очень опасны.
Релиз-группа: Deepavali
Перевод субтитров: Sima Kivi

Качество видео: DVDRip
Формат видео: AVI
Видео: XviD, 720x408 pixel, 25.000 fps, 1240 kbps
Аудио: AC3, 48 kHz, 5.1 (6 ch) channels, 256 kbps
Формат субтитров: hardsub (неотключаемые)
MediaInfo
C:\Users\алла\Videos\бимуви\Vchera.Segodnya.Zavtra.2015..2013.DVDRip.XviD.Deepavali.avi
General
Complete name : C:\Users\алла\Videos\бимуви\Vchera.Segodnya.Zavtra.2015..2013.DVDRip.XviD.Deepavali.avi
Format : AVI
Format/Info : Audio Video Interleave
File size : 1.46 GiB
Duration : 2h 19mn
Overall bit rate : 1 506 Kbps
Writing application : VirtualDubMod 1.5.10.3 | www.virtualdub-fr.org || (build 2550/release)
Writing library : VirtualDubMod build 2550/release
Video #0
ID : 0
Format : MPEG-4 Visual
Format profile : Advanced Simple@L5
Format settings, BVOP : 1
Format settings, QPel : No
Format settings, GMC : No warppoints
Format settings, Matrix : Default (MPEG)
Codec ID : DX50
Codec ID/Hint : DivX 5
Duration : 2h 19mn
Bit rate : 1 240 Kbps
Width : 720 pixels
Height : 408 pixels
Display aspect ratio : 16:9
Frame rate : 25.000 fps
Color space : YUV
Chroma subsampling : 4:2:0
Bit depth : 8 bits
Scan type : Progressive
Compression mode : Lossy
Bits/(Pixel*Frame) : 0.169
Stream size : 1.21 GiB (82%)
Writing library : XviD 1.2.1 (UTC 2008-12-04)
Audio #1
ID : 1
Format : AC-3
Format/Info : Audio Coding 3
Mode extension : CM (complete main)
Codec ID : 2000
Duration : 2h 19mn
Bit rate mode : Constant
Bit rate : 256 Kbps
Channel(s) : 6 channels
Channel positions : Front: L C R, Side: L R, LFE
Sampling rate : 48.0 KHz
Bit depth : 16 bits
Compression mode : Lossy
Stream size : 255 MiB (17%)
Alignment : Split accross interleaves
Interleave, duration : 40 ms (1.00 video frame)
Interleave, preload duration : 500 ms
Скриншот c названием фильма Скриншоты
Скачать

Скачать торрент! Вчера, сегодня, завтра / Indru Netru Naalai (Рави Кумар / Ravi Kumar. R) [2015, Индия, Научная фантастика, экшн, комедия, драма, DVDRip] Rus hardsub

Как скачивать? · Что такое торрент? · Рейтинг и ограничения

Сайт не распространяет и не хранит электронные версии произведений, а лишь предоставляет доступ к создаваемому пользователями каталогу ссылок на торрент-файлы, которые содержат только списки хеш-сумм

[Профиль] [ЛС]
Показать сообщения:    
Ответить на тему

Текущее время: Сегодня 07:20

Часовой пояс: GMT + 4



Вы не можете начинать темы
Вы не можете отвечать на сообщения
Вы не можете редактировать свои сообщения
Вы не можете удалять свои сообщения
Вы не можете голосовать в опросах
Вы не можете прикреплять файлы к сообщениям
Вы не можете скачивать файлы