Потерянные в Америке / Lost in America (Альберт Брукс / Albert Brooks) [1985, США, комедия, WEB-DL 720p] Original (Eng) + Sub (Rus, Eng)

Ответить на тему
 
Автор Сообщение

user ®

Стаж: 7 лет 7 месяцев

Сообщений: 20008

Пост Пост: #1 от 28-Июл-2015 11:51

[Цитировать]

Потерянные в Америке / Lost in America
Год выпуска: 1985
Страна: США
Жанр: комедия
Продолжительность: 01:31:18
Перевод: субтитры (beroal)
Cубтитры: русские, английские
Оригинальная аудиодорожка: английская
Оглавление: 29 англоязычных глав
Режиссёр: Альберт Брукс /Albert Brooks/
В ролях: Альберт Брукс /Mimi Rogers/, Джули Хэгерти /Darwyn Carson/, Майкл Грин /Michael Greene/, Гэрри Маршалл /Garry Marshall/, Мэгги Росвэлл /Maggie Roswell/, Том Тарпи /Tom Tarpey/, Эрни Браун /Ernie Brown/, Арт Франкель /Art Frankel/, Дональд Гибб /Donald Gibb/
Описание:
В тридцать лет муж и жена решают оставить работу, жить свободно и путешествовать по Америке в доме на колесах.
Дополнительная информация:
IMDB User Rating→: 7.1/10 (4,813 votes)
Рейтинг фильма КиноПоиск.Ru→: 6.633 (61 голос)
Качество: WEB-DL (thnx alfablac)
Контейнер: MKV
Видеопоток: 1280x720p, 23.976 fps, x264 ~4028 kbps
Аудиопоток (ENG): DD 1.0, 48 kHz, 192 kbps
Субтитры №1 (RUS): SRT/UTF8 | beroal
Субтитры №2 (ENG): SRT/UTF8
Сэмпл: Яндекс.Диск→, multi-up→, nekaka→, sendspace→
MediaInfo
General
Unique ID                                : 246318543952923653307624380806738255823 (0xB94F39D8E3054224AF6DED1FB4409FCF)
Complete name                            : Lost.in.America.1985.720p.WEB-DL.H.264.DD.SRT.mkv
Format                                   : Matroska
Format version                           : Version 4 / Version 2
File size                                : 2.69 GiB
Duration                                 : 1h 31mn
Overall bit rate                         : 4 222 Kbps
Movie name                               : Lost in America (1985) 720p WEB-DL
Encoded date                             : UTC 2015-07-27 09:54:37
Writing application                      : mkvmerge v7.8.0 ('River Man') 64bit built on Mar 27 2015 16:31:37
Writing library                          : libebml v1.3.1 + libmatroska v1.4.2
DURATION                                 : 01:26:52.931000000
NUMBER_OF_FRAMES                         : 1215
NUMBER_OF_BYTES                          : 50915
_STATISTICS_WRITING_APP                  : mkvmerge v7.8.0 ('River Man') 64bit built on Mar 27 2015 16:31:37
_STATISTICS_WRITING_DATE_UTC             : 2015-07-27 09:54:37
_STATISTICS_TAGS                         : BPS DURATION NUMBER_OF_FRAMES NUMBER_OF_BYTES
Video
ID                                       : 1
Format                                   : AVC
Format/Info                              : Advanced Video Codec
Format profile                           : High@L3.1
Format settings, CABAC                   : No
Format settings, ReFrames                : 2 frames
Codec ID                                 : V_MPEG4/ISO/AVC
Duration                                 : 1h 31mn
Bit rate                                 : 3 946 Kbps
Width                                    : 1 278 pixels
Height                                   : 720 pixels
Display aspect ratio                     : 16:9
Frame rate mode                          : Constant
Frame rate                               : 23.976 fps
Color space                              : YUV
Chroma subsampling                       : 4:2:0
Bit depth                                : 8 bits
Scan type                                : Progressive
Bits/(Pixel*Frame)                       : 0.179
Stream size                              : 2.52 GiB (93%)
Title                                    : 1278x720, 23.976 fps, x264 ~4028 kbps
Language                                 : English
Default                                  : Yes
Forced                                   : No
Color range                              : Limited
Color primaries                          : BT.709
Transfer characteristics                 : BT.709
Matrix coefficients                      : BT.709
Audio
ID                                       : 2
Format                                   : AC-3
Format/Info                              : Audio Coding 3
Mode extension                           : CM (complete main)
Format settings, Endianness              : Big
Codec ID                                 : A_AC3
Duration                                 : 1h 31mn
Bit rate mode                            : Constant
Bit rate                                 : 192 Kbps
Channel(s)                               : 1 channel
Channel positions                        : Front: C
Sampling rate                            : 48.0 KHz
Bit depth                                : 16 bits
Compression mode                         : Lossy
Stream size                              : 125 MiB (5%)
Title                                    : ENG DD 1.0, 48 kHz, 192 kbps
Language                                 : English
Default                                  : Yes
Forced                                   : No
Text #1
ID                                       : 3
Format                                   : UTF-8
Codec ID                                 : S_TEXT/UTF8
Codec ID/Info                            : UTF-8 Plain Text
Title                                    : RUS beroal SRT
Language                                 : Russian
Default                                  : Yes
Forced                                   : No
Text #2
ID                                       : 4
Format                                   : UTF-8
Codec ID                                 : S_TEXT/UTF8
Codec ID/Info                            : UTF-8 Plain Text
Title                                    : ENG SRT
Language                                 : English
Default                                  : No
Forced                                   : No
Menu
00:00:00.000                             : en:Rex Reed on movies
00:03:29.000                             : en:Responsible David
00:07:08.000                             : en:Man in the mirror
00:08:05.000                             : en:Maybe this time?
00:11:18.000                             : en:Car talk with Hans
00:13:24.000                             : en:Unexpected news
00:20:27.000                             : en:"We're free."
00:23:29.000                             : en:Just like Easy Rider
00:26:54.000                             : en:America, here we come
00:28:54.000                             : en:On the road (Born to Be Wild)
00:31:11.000                             : en:Las Vegas
00:33:45.000                             : en:Junior bridal suite
00:37:44.000                             : en:Her unlucky number
00:40:47.000                             : en:No more nest egg
00:43:13.000                             : en:A bold experiment
00:47:15.000                             : en:No Santa Claus
00:49:40.000                             : en:Hoover Dam
00:52:24.000                             : en:Nest egg principle
00:57:05.000                             : en:Lost: a whole woman
00:59:16.000                             : en:Truck-stop rescue
01:00:31.000                             : en:Not a blessing
01:03:28.000                             : en:Easy Rider soulmate
01:07:18.000                             : en:Safford, AZ
01:10:42.000                             : en:A job from the $100,000 box
01:17:00.000                             : en:Mercedes
01:21:26.000                             : en:New plan
01:24:59.000                             : en:New York, New York-bound
01:27:29.000                             : en:Coda
01:28:13.000                             : en:End Credits
Скриншоты
Скачать

Скачать торрент!

Как скачивать? · Что такое торрент? · Рейтинг и ограничения

Сайт не распространяет и не хранит электронные версии произведений, а лишь предоставляет доступ к создаваемому пользователями каталогу ссылок на торрент-файлы, которые содержат только списки хеш-сумм

[Профиль] [ЛС]
Показать сообщения:    
Ответить на тему

Текущее время: Сегодня 22:42

Часовой пояс: GMT + 4



Вы не можете начинать темы
Вы не можете отвечать на сообщения
Вы не можете редактировать свои сообщения
Вы не можете удалять свои сообщения
Вы не можете голосовать в опросах
Вы не можете прикреплять файлы к сообщениям
Вы не можете скачивать файлы