Код доступа «Кейптаун» / Safe House (Дэниэл Эспиноза / Daniel Espinosa) [2012, США, ЮАР, боевик, триллер, криминал, детектив, HDTV 1080i] Dub

Ответить на тему
 
Автор Сообщение

user ®

Стаж: 7 лет 7 месяцев

Сообщений: 20008

Пост Пост: #1 от 28-Июл-2015 11:51

[Цитировать]

Код доступа «Кейптаун» / Safe House
Страна: США, ЮАР
Жанр: боевик, триллер, криминал, детектив
Год выпуска: 2012
Продолжительность: 01:46:37
Перевод: Профессиональный (дублированный)
Cубтитры: нет
Оригинальная аудиодорожка: нет
Режиссер: Дэниэл Эспиноза / Daniel Espinosa
В ролях: Дензел Вашингтон (Tobin Frost), Райан Рейнольдс (Matt Weston), Вера Фармига (Catherine Linklater), Брендан Глисон (David Barlow), Сэм Шепард (Harlan Whitford), Рубен Бладес (Carlos Villar), Нора Арнезедер (Ana Moreau), Роберт Патрик (Daniel Kiefer), Лиам Каннингэм (Alec Wade), Юэль Киннаман (Keller), Фарес Фарес (Vargas), Дженна Довер (CIA Analyst)
Описание: Выпускник Гарварда Мэтт мечтает со своей невестой переехать в Париж. Но она не знает, что уже год он работает на ЦРУ. Легендарный агент ЦРУ Фрост владеет секретной информацией. Но он вышел из-под контроля, и теперь его главное правило: «не доверяй никому — тебя предаст каждый». Их пути пересекутся в одном из красивейших городов мира — Кейптауне, где каждый должен будет сделать свой выбор.
Доп. информация: BD и HDTV имеют разное наполнение кадра http://screenshotcomparison.com/comparison/136710
Сэмпл: http://multi-up.com/1060319
Тип релиза: HDTV 1080i
Контейнер: TS
Видео: AVC, 1920x1080 (16:9), 25.000 fps, 12.7 Mbps (0.244 bit/pixel)
Аудио: MP2, 48.0 KHz, 2 ch, 192 Kbps, CBR (Russian)
MediaInfo
Общее
Идентификатор : 3 (0x3)
Полное имя : K:\Код доступа «Кейптаун».ts
Формат : MPEG-TS
Размер файла : 10,1 Гбайт
Продолжительность : 1 ч. 46 м.
Режим общего битрейта : Переменный
Общий поток : 13,5 Мбит/сек
Видео
Идентификатор : 2141 (0x85D)
Идентификатор меню : 21004 (0x520C)
Формат : AVC
Формат/Информация : Advanced Video Codec
Профиль формата : Main@L4
Параметр CABAC формата : Да
Параметр ReFrames формата : 3 кадра
Идентификатор кодека : 27
Продолжительность : 1 ч. 46 м.
Битрейт : 12,7 Мбит/сек
Ширина : 1920 пикселей
Высота : 1080 пикселей
Соотношение сторон : 16:9
Частота кадров : 25,000 кадров/сек
Стандарт вещания : Component
Цветовое пространство : YUV
Субдискретизация насыщенности : 4:2:0
Битовая глубина : 8 бит
Тип развёртки : Чересстрочная
Порядок развёртки : Верхнее поле первое
Бит/(Пиксели*Кадры) : 0.244
Размер потока : 9,42 Гбайт (94%)
Цветовой диапазон : Limited
Основные цвета : BT.709
Характеристики трансфера : BT.709
Коэффициенты матрицы : BT.709
Аудио
Идентификатор : 2142 (0x85E)
Идентификатор меню : 21004 (0x520C)
Формат : MPEG Audio
Версия формата : Version 1
Профиль формата : Layer 2
Идентификатор кодека : 4
Продолжительность : 1 ч. 46 м.
Вид битрейта : Постоянный
Битрейт : 192 Кбит/сек
Каналы : 2 канала
Частота : 48,0 КГц
Метод сжатия : С потерями
Задержка видео : -8 мс.
Размер потока : 146 Мбайт (1%)
Язык : Russian
Скриншоты
Скачать

Скачать торрент!

Как скачивать? · Что такое торрент? · Рейтинг и ограничения

Сайт не распространяет и не хранит электронные версии произведений, а лишь предоставляет доступ к создаваемому пользователями каталогу ссылок на торрент-файлы, которые содержат только списки хеш-сумм

[Профиль] [ЛС]
Показать сообщения:    
Ответить на тему

Текущее время: Сегодня 22:15

Часовой пояс: GMT + 4



Вы не можете начинать темы
Вы не можете отвечать на сообщения
Вы не можете редактировать свои сообщения
Вы не можете удалять свои сообщения
Вы не можете голосовать в опросах
Вы не можете прикреплять файлы к сообщениям
Вы не можете скачивать файлы