Нет выхода / No Way Out (Роджер Доналдсон / Roger Donaldson) [1987, США, боевик, драма, криминал, HDTV 1080i] Dub + DVO + 2x MVO + 3x AVO + Original (Eng) + Sub (Eng)

Ответить на тему
 
Автор Сообщение

user ®

Стаж: 7 лет 7 месяцев

Сообщений: 20008

Пост Пост: #1 от 27-Июл-2015 17:12

[Цитировать]

Нет выхода / No Way Out Год выпуска: 1987
Страна: США
Жанр: боевик, драма, криминал
Продолжительность: 01:54:18
Переводы:
- профессиональный (двуголосый закадровый) НТВ+ | текст читали И. Тарадайкин и О. Плетнёва
- профессиональный (многоголосый закадровый) ТК Домашний
- профессиональный (многоголосый закадровый) Пятый канал
- авторский (одноголосый закадровый) А. Гаврилов
- авторский (одноголосый закадровый) Ю. Живов
- авторский (одноголосый закадровый) С. Дьяков
- профессиональный (дублированный) Студия "Синхрон" творческого объединения "Хлопушка" киностудии имени А. Довженко
Оригинальная аудиодорожка: английская
Cубтитры: английские
Режиссер: Роджер Доналдсон / Roger Donaldson
В ролях: Кевин Костнер, Джин Хэкман, Уилл Паттон, Шон Янг, Джордж Дзундза, Иман, Джейсон Бернард, Маршалл Белл, Крис Д., Фред Далтон Томпсон, Леон Рассом, Юджин Роберт Глейзер
Описание: Капитан-лейтенант ВМС Том Фаррелл влюбляется в Сьюзен, любовницу министра обороны Дэвида Брайса. Они встречаются и прекрасно проводят время, но однажды Брайс в порыве ревности случайно убивает Сьюзен. Начинаются подковерные политико-агентурные игры с целью подстраховать министра и поймать фальшивого убийцу - другого любовника Сьюзен и одновременно вымышленного советского агента. Фарреллу, получившему повышение в Пентагон, поручают расследование, в результате которого он сам может пострадать. Фотография, сделанная Сьюзен - главное доказательство существования убийцы - рано или поздно укажет на него. Это ситуация, где возможно нет выхода...
Доп. информация:

Тип релиза: No Way Out 1987 1080i HDTV DD5.1 MPEG2-CtrlHD | sample
Формат видео: MKV
Видео: MPEG-2 | 1920x1080 (16:9) | 29.970 fps | ~17.2 Mbps
Аудио #1: Russian AC3 6ch 48kHz 448Kbps | DVO
Аудио #2: English AC3 6ch 48kHz 384Kbps | Оригинал
Аудио #3: Russian AC3 2ch 48kHz 192Kbps | AVO А. Гаврилов
Аудио #4: Russian AC3 2ch 48kHz 192Kbps | MVO ТК Домашний
Аудио #5: Russian AC3 2ch 48kHz 192Kbps | MVO Пятый канал
Аудио #6: Russian AC3 2ch 48kHz 192Kbps | AVO Ю. Живов
Аудио #7: Russian AC3 2ch 48kHz 192Kbps | AVO С. Дьяков
Аудио #8: Russian AC3 2ch 48kHz 192Kbps | Дубляж
Формат субтитров: softsub (SRT)
Навигация по главам: подписанные мультиязычные главы
MediaInfo
Уникальный идентификатор : 215914299182996381852713364499304604088 (0xA26F94D80EFCA146972A0731095CE1B8)
Полное имя : D:\...\No.Way.Out.1987\No Way Out 1987 1080i HDTV DD5.1 MPEG2-CtrlHD.mkv
Формат : Matroska
Версия формата : Version 2
Размер файла : 15,6 Гбайт
Продолжительность : 1 ч. 54 м.
Режим общего битрейта : Переменный
Общий поток : 19,5 Мбит/сек
Название фильма : No Way Out (1987)
Дата кодирования : UTC 2015-06-08 11:45:10
Программа кодирования : mkvmerge v7.0.0 ('Where We Going') 64bit built on Jun 9 2014 15:16:27
Библиотека кодирования : libebml v1.3.0 + libmatroska v1.4.1
Идентификатор : 1
Формат : MPEG Video
Версия формата : Version 2
Профиль формата : Main@High
Параметр BVOP формата : Да
Параметр матрицы формата : Выборочная
Идентификатор кодека : V_MPEG2
Идентификатор кодека/Информация : MPEG 1 or 2 Video
Продолжительность : 1 ч. 54 м.
Вид битрейта : Переменный
Битрейт : 17,2 Мбит/сек
Максимальный битрейт : 19,4 Мбит/сек
Ширина : 1920 пикселей
Высота : 1080 пикселей
Соотношение сторон : 16:9
Режим частоты кадров : Постоянный
Частота кадров : 29,970 кадров/сек
Цветовое пространство : YUV
Субдискретизация насыщенности : 4:2:0
Битовая глубина : 8 бит
Тип развёртки : Чересстрочная
Порядок развёртки : Верхнее поле первое
Метод сжатия : С потерями
Бит/(Пиксели*Кадры) : 0.276
Размер потока : 13,7 Гбайт (88%)
Заголовок : No Way Out 1987 1080i HDTV DD5.1 MPEG2-CtrlHD
Язык : English
Default : Да
Forced : Нет
Аудио #1
Идентификатор : 2
Формат : AC-3
Формат/Информация : Audio Coding 3
Расширение режима : CM (complete main)
Параметр Endianness формата : Big
Идентификатор кодека : A_AC3
Продолжительность : 1 ч. 54 м.
Вид битрейта : Постоянный
Битрейт : 448 Кбит/сек
Каналы : 6 каналов
Расположение каналов : Front: L C R, Side: L R, LFE
Частота : 48,0 КГц
Битовая глубина : 16 бит
Метод сжатия : С потерями
Размер потока : 366 Мбайт (2%)
Заголовок : DVO НТВ+
Язык : Russian
Default : Да
Forced : Нет
Аудио #2
Идентификатор : 3
Формат : AC-3
Формат/Информация : Audio Coding 3
Расширение режима : CM (complete main)
Параметр Endianness формата : Big
Идентификатор кодека : A_AC3
Продолжительность : 1 ч. 54 м.
Вид битрейта : Постоянный
Битрейт : 384 Кбит/сек
Каналы : 6 каналов
Расположение каналов : Front: L C R, Side: L R, LFE
Частота : 48,0 КГц
Битовая глубина : 16 бит
Метод сжатия : С потерями
Размер потока : 314 Мбайт (2%)
Заголовок : Original
Язык : English
Default : Нет
Forced : Нет
Аудио #3
Идентификатор : 4
Формат : AC-3
Формат/Информация : Audio Coding 3
Расширение режима : CM (complete main)
Параметр Endianness формата : Big
Идентификатор кодека : A_AC3
Продолжительность : 1 ч. 54 м.
Вид битрейта : Постоянный
Битрейт : 192 Кбит/сек
Каналы : 2 канала
Расположение каналов : Front: L R
Частота : 48,0 КГц
Битовая глубина : 16 бит
Метод сжатия : С потерями
Размер потока : 157 Мбайт (1%)
Заголовок : AVO Андрей Гаврилов
Язык : Russian
Default : Нет
Forced : Нет
Аудио #4
Идентификатор : 5
Формат : AC-3
Формат/Информация : Audio Coding 3
Расширение режима : CM (complete main)
Параметр Endianness формата : Big
Идентификатор кодека : A_AC3
Продолжительность : 1 ч. 54 м.
Вид битрейта : Постоянный
Битрейт : 192 Кбит/сек
Каналы : 2 канала
Расположение каналов : Front: L R
Частота : 48,0 КГц
Битовая глубина : 16 бит
Метод сжатия : С потерями
Размер потока : 157 Мбайт (1%)
Заголовок : MVO ТК Домашний
Язык : Russian
Default : Нет
Forced : Нет
Аудио #5
Идентификатор : 6
Формат : AC-3
Формат/Информация : Audio Coding 3
Расширение режима : CM (complete main)
Параметр Endianness формата : Big
Идентификатор кодека : A_AC3
Продолжительность : 1 ч. 54 м.
Вид битрейта : Постоянный
Битрейт : 192 Кбит/сек
Каналы : 2 канала
Расположение каналов : Front: L R
Частота : 48,0 КГц
Битовая глубина : 16 бит
Метод сжатия : С потерями
Размер потока : 157 Мбайт (1%)
Заголовок : MVO Пятый канал
Язык : Russian
Default : Нет
Forced : Нет
Аудио #6
Идентификатор : 7
Формат : AC-3
Формат/Информация : Audio Coding 3
Расширение режима : CM (complete main)
Параметр Endianness формата : Big
Идентификатор кодека : A_AC3
Продолжительность : 1 ч. 54 м.
Вид битрейта : Постоянный
Битрейт : 192 Кбит/сек
Каналы : 2 канала
Расположение каналов : Front: L R
Частота : 48,0 КГц
Битовая глубина : 16 бит
Метод сжатия : С потерями
Размер потока : 157 Мбайт (1%)
Заголовок : AVO Юрий Живов
Язык : Russian
Default : Нет
Forced : Нет
Аудио #7
Идентификатор : 8
Формат : AC-3
Формат/Информация : Audio Coding 3
Расширение режима : CM (complete main)
Параметр Endianness формата : Big
Идентификатор кодека : A_AC3
Продолжительность : 1 ч. 54 м.
Вид битрейта : Постоянный
Битрейт : 192 Кбит/сек
Каналы : 2 канала
Расположение каналов : Front: L R
Частота : 48,0 КГц
Битовая глубина : 16 бит
Метод сжатия : С потерями
Размер потока : 157 Мбайт (1%)
Заголовок : AVO Сергей Дьяков
Язык : Russian
Default : Нет
Forced : Нет
Аудио #8
Идентификатор : 9
Формат : AC-3
Формат/Информация : Audio Coding 3
Расширение режима : CM (complete main)
Параметр Endianness формата : Big
Идентификатор кодека : A_AC3
Продолжительность : 1 ч. 54 м.
Вид битрейта : Постоянный
Битрейт : 192 Кбит/сек
Каналы : 2 канала
Расположение каналов : Front: L R
Частота : 48,0 КГц
Битовая глубина : 16 бит
Метод сжатия : С потерями
Размер потока : 157 Мбайт (1%)
Заголовок : Дубляж
Язык : Russian
Default : Нет
Forced : Нет
Текст
Идентификатор : 10
Формат : UTF-8
Идентификатор кодека : S_TEXT/UTF8
Идентификатор кодека/Информация : UTF-8 Plain Text
Заголовок : Полные
Язык : English
Default : Нет
Forced : Нет
Меню
00:00:00.000 : en:Opening Credits / Начальные титры
00:03:30.460 : en:Interrogation / Допрос
00:04:46.161 : en:Meet and Great / Большой приём
00:09:55.220 : en:Sparks Fly / Искры летели
00:14:50.723 : en:Daring Sea Rescue / Смелых море выручает
00:17:49.777 : en:In Need of A Hero / Нужен герой
00:20:30.146 : en:The Other Man / Другой мужчина
00:23:10.472 : en:"Naval Hero Blushes" / Герою неловко
00:26:07.608 : en:New Job / Новая работа
00:31:46.613 : en:Susan's Guys / Парни Сьюзан
00:37:27.996 : en:Romantic Getaway / Романтическое бегство от будней
00:41:30.405 : en:Jealous Rage / Приступ ревности
00:46:36.961 : en:Cover Up / Прикрыли
00:50:51.257 : en:Stuck / Попал!
00:58:09.778 : en:Top-Secret Business / Совершенно секретное дело
01:04:18.396 : en:Seeking Yuri / Поиск Юрия
01:07:51.317 : en:A Gift / Подарок
01:09:31.042 : en:Moral Courage / Внутреннее мужество
01:17:14.380 : en:Tom's Plan / План Тома
01:21:53.575 : en:Time To Talk / Пора поговорить
01:26:02.908 : en:All Coming Together / Все в сборе
01:30:51.029 : en:Pentagon Search / Пентагон обыскивают
01:33:16.925 : en:Sam's Help / Помощь Сэма
01:36:31.411 : en:Kill to Protect / Убрать ради защиты
01:39:44.687 : en:Getting Close / Развязка близка
01:43:20.736 : en:Yuri Is Found / Юрий найден
01:47:20.809 : en:A Time For Grief / Время печали
01:50:07.976 : en:End Credits / Финальные титры
Скриншоты
-Этот HDTV vs. [url=http://***/forum/viewtopic.php?t=2341500]HDTV от jurasiom (~7578 kbps)[/url]









Цитата:
26-Июл-15 20:33
Исправлены ошибки, торрент перезалит.
Скачать

Скачать торрент!

Как скачивать? · Что такое торрент? · Рейтинг и ограничения

Сайт не распространяет и не хранит электронные версии произведений, а лишь предоставляет доступ к создаваемому пользователями каталогу ссылок на торрент-файлы, которые содержат только списки хеш-сумм

[Профиль] [ЛС]
Показать сообщения:    
Ответить на тему

Текущее время: Сегодня 16:24

Часовой пояс: GMT + 4



Вы не можете начинать темы
Вы не можете отвечать на сообщения
Вы не можете редактировать свои сообщения
Вы не можете удалять свои сообщения
Вы не можете голосовать в опросах
Вы не можете прикреплять файлы к сообщениям
Вы не можете скачивать файлы