Место в сердце / Воспоминания сердца / Places in the Heart (Роберт Бентон / Robert Benton) [1984, США, драма, BDRemux 1080p] MVO + DVO + Sub Eng + Original Eng

Ответить на тему
 
Автор Сообщение

user ®

Стаж: 7 лет 7 месяцев

Сообщений: 20008

Пост Пост: #1 от 26-Июл-2015 22:39

[Цитировать]

Место в сердце / Воспоминания сердца / Places in the Heart
-Страна: США
Жанр: драма
Год выпуска: 1984
Продолжительность: 01:54:14-Перевод 1: Профессиональный (двухголосый закадровый) Культура
Перевод 2: Профессиональный (многоголосый закадровый) 5 канал Санкт-Петербург-Cубтитры: английские
Оригинальная аудиодорожка: английский-Режиссер: Роберт Бентон / Robert Benton-В ролях: Салли Филд, Линдси Краузе, Эд Харрис, Джон Малкович, Дэнни Гловер, Янктон Хэттен, Лэйн Смит, Дженни Джеймс, Эми Мэдигэн, Терри О'Куинн-Описание:
Жизнь маленького техасского городка в годы Великой депрессии (1929-1933). Молодая вдова Эдна Сполдинг вынуждена сама вести фермерское хозяйство, воспитывать двоих детей и бороться за выживание.-Сэмпл: Скачать-Тип релиза: BDRemux 1080p
Контейнер: MKV-Видео: 1920x1080 (16:9); 35.0 Mbps; 23.976 fps; 0.551 bpp
Аудио 1: Russian; AC3; 48.0 KHz; 1ch; 128 Kbps DVO Культура
Аудио 2: Russian; AC3; 48.0 KHz; 1ch; 128 Kbps MVO 5 канал Санкт-Петербург
Аудио 3: English; FLAC; 48.0 KHz; 1ch; 638 Kbps
Аудио 4: English; AC3; 48.0 KHz; 2 ch; 192 kbps commentary
MediaInfo
Format : Matroska
Format version : Version 4 / Version 2
File size : 24.0 GiB
Duration : 1h 51mn
Overall bit rate mode : Variable
Overall bit rate : 30.9 Mbps
Encoded date : UTC 2015-07-25 18:28:49
Writing application : mkvmerge v8.1.0 ('Psychedelic Postcard') 64bit
Writing library : libebml v1.3.1 + libmatroska v1.4.2
Attachements : poster.jpg
DURATION : 01:51:13.664000000
NUMBER_OF_FRAMES : 208552
NUMBER_OF_BYTES : 106778624
_STATISTICS_WRITING_APP : mkvmerge v8.1.0 ('Psychedelic Postcard') 64bit
_STATISTICS_WRITING_DATE_UTC : 2015-07-25 18:28:49
_STATISTICS_TAGS : BPS DURATION NUMBER_OF_FRAMES NUMBER_OF_BYTES
Video
ID : 1
Format : AVC
Format/Info : Advanced Video Codec
Format profile : High@L4.1
Format settings, CABAC : Yes
Format settings, ReFrames : 4 frames
Codec ID : V_MPEG4/ISO/AVC
Duration : 1h 51mn
Bit rate mode : Variable
Maximum bit rate : 35.0 Mbps
Width : 1 920 pixels
Height : 1 080 pixels
Display aspect ratio : 16:9
Frame rate mode : Constant
Frame rate : 23.976 fps
Color space : YUV
Chroma subsampling : 4:2:0
Bit depth : 8 bits
Scan type : Progressive
Default : Yes
Forced : No
Audio #1
ID : 2
Format : AC-3
Format/Info : Audio Coding 3
Mode extension : CM (complete main)
Format settings, Endianness : Big
Codec ID : A_AC3
Duration : 1h 51mn
Bit rate mode : Constant
Bit rate : 128 Kbps
Channel(s) : 1 channel
Channel positions : Front: C
Sampling rate : 48.0 KHz
Bit depth : 16 bits
Compression mode : Lossy
Stream size : 102 MiB (0%)
Title : MVO ТК Культура
Language : Russian
Default : Yes
Forced : No
Audio #2
ID : 3
Format : AC-3
Format/Info : Audio Coding 3
Mode extension : CM (complete main)
Format settings, Endianness : Big
Codec ID : A_AC3
Duration : 1h 51mn
Bit rate mode : Constant
Bit rate : 128 Kbps
Channel(s) : 1 channel
Channel positions : Front: C
Sampling rate : 48.0 KHz
Bit depth : 16 bits
Compression mode : Lossy
Stream size : 102 MiB (0%)
Title : DVO 5 Канал
Language : Russian
Default : No
Forced : No
Audio #3
ID : 4
Format : FLAC
Format/Info : Free Lossless Audio Codec
Codec ID : A_FLAC
Duration : 1h 51mn
Bit rate mode : Variable
Channel(s) : 1 channel
Sampling rate : 48.0 KHz
Bit depth : 24 bits
Writing library : libFLAC 1.2.1 (UTC 2007-09-17)
Language : English
Default : No
Forced : No
Audio #4
ID : 5
Format : AC-3
Format/Info : Audio Coding 3
Mode extension : CM (complete main)
Format settings, Endianness : Big
Codec ID : A_AC3
Duration : 1h 51mn
Bit rate mode : Constant
Bit rate : 192 Kbps
Channel(s) : 2 channels
Channel positions : Front: L R
Sampling rate : 48.0 KHz
Bit depth : 16 bits
Compression mode : Lossy
Stream size : 153 MiB (1%)
Title : commentary
Language : English
Default : No
Forced : No
Text
ID : 6
Format : UTF-8
Codec ID : S_TEXT/UTF8
Codec ID/Info : UTF-8 Plain Text
Language : English
Default : No
Forced : No
Menu
00:00:00.000 : :00:00:00.000
00:04:52.751 : :00:04:52.751
00:09:36.993 : :00:09:36.993
00:14:28.409 : :00:14:28.409
00:18:29.817 : :00:18:29.817
00:23:59.813 : :00:23:59.813
00:28:19.156 : :00:28:19.156
00:34:14.344 : :00:34:14.344
00:39:03.675 : :00:39:03.675
00:42:49.066 : :00:42:49.066
00:46:24.907 : :00:46:24.907
00:51:15.447 : :00:51:15.447
00:54:35.147 : :00:54:35.147
01:02:20.403 : :01:02:20.403
01:05:31.886 : :01:05:31.886
01:10:44.365 : :01:10:44.365
01:14:39.934 : :01:14:39.934
01:19:53.747 : :01:19:53.747
01:24:09.628 : :01:24:09.628
01:31:37.117 : :01:31:37.117
01:33:55.338 : :01:33:55.338
01:40:04.540 : :01:40:04.540
01:44:06.740 : :01:44:06.740
01:48:22.496 : :01:48:22.496
Скриншоты
Скачать

Скачать торрент!

Как скачивать? · Что такое торрент? · Рейтинг и ограничения

Сайт не распространяет и не хранит электронные версии произведений, а лишь предоставляет доступ к создаваемому пользователями каталогу ссылок на торрент-файлы, которые содержат только списки хеш-сумм

[Профиль] [ЛС]
Показать сообщения:    
Ответить на тему

Текущее время: Сегодня 07:59

Часовой пояс: GMT + 4



Вы не можете начинать темы
Вы не можете отвечать на сообщения
Вы не можете редактировать свои сообщения
Вы не можете удалять свои сообщения
Вы не можете голосовать в опросах
Вы не можете прикреплять файлы к сообщениям
Вы не можете скачивать файлы