Игра смерти / Game of Death (Джорджо Серафини / Georgio Serafini) [2010, США, боевик, триллер, BDRip 720p] [Uncut] MVOx2 + Original Eng

Ответить на тему
 
Автор Сообщение

user ®

Стаж: 7 лет 7 месяцев

Сообщений: 20008

Пост Пост: #1 от 26-Июл-2015 19:33

[Цитировать]

Игра смерти / Game of Death / Uncut
Страна: США
Жанр: боевик, триллер
Год выпуска: 2010
Продолжительность: 01:37:56
Перевод: Профессиональный (многоголосый закадровый) Кинопоказ
Перевод: Профессиональный (многоголосый закадровый) РенТВ
Cубтитры: нет
Оригинальная аудиодорожка: английский
Режиссер: Джорджо Серафини / Georgio Serafini
В ролях: Уэсли Снайпс, Зои Белл, Гэри Дэниелс, Роберт Дави, Саймон Ри, Ричард Готери, Владимир Тевловский, Ху Сунг Пак, Лэйдон Драммонд, Стэйси Хэдкости, Дарси Лейтзингер
Описание: Защищая видного дипломата, его личный телохранитель со своей командой оказываются c ранениями в больнице, где знакомятся с медсестрой под прикрытием. Они решают объединится, для обороны дипломата, но в дальнейшем медсестра понимает, что ситуация складывается совсем не так, как хотелось бы всем. Каждый из компании становится участником одной игры смерти.
Сэмпл: http://multi-up.com/1060134
Тип релиза: BDRip 720p
Контейнер: MKV
Видео: AVC, 1280x544 (2.35), 23.976 fps, 4 884 Kbps (0.283 bit/pixel)
Аудио 1: AC-3, 48.0 KHz, 2 ch, 192 Kbps, CBR (Russian) - Кинопоказ
Аудио 1: AC-3, 48.0 KHz, 2 ch, 192 Kbps, CBR (Russian) - РенТВ
Аудио 2: DTS, 48.0 KHz, 6 ch, 1 510 Kbps, CBR (English)
MediaInfo
Общее
Уникальный идентификатор : 245016137936661379387988878498125556004 (0xB8546445DD10AE9EA155E6D50ED7A924)
Полное имя : K:\МОИ РАЗДАЧИ\Game.of.Death.[Uncut].720p.mkv
Формат : Matroska
Версия формата : Version 2
Размер файла : 4,64 Гбайт
Продолжительность : 1 ч. 37 м.
Общий поток : 6778 Кбит/сек
Дата кодирования : UTC 2015-07-26 13:34:06
Программа кодирования : mkvmerge v8.2.0 ('World of Adventure') 64bit
Библиотека кодирования : libebml v1.3.1 + libmatroska v1.4.2
Видео
Идентификатор : 1
Формат : AVC
Формат/Информация : Advanced Video Codec
Профиль формата : High@L4.1
Параметр CABAC формата : Да
Параметр ReFrames формата : 5 кадров
Идентификатор кодека : V_MPEG4/ISO/AVC
Продолжительность : 1 ч. 37 м.
Битрейт : 4884 Кбит/сек
Ширина : 1280 пикселей
Высота : 544 пикселя
Соотношение сторон : 2,35:1
Режим частоты кадров : Постоянный
Частота кадров : 23,976 кадра/сек
Цветовое пространство : YUV
Субдискретизация насыщенности : 4:2:0
Битовая глубина : 8 бит
Тип развёртки : Прогрессивная
Бит/(Пиксели*Кадры) : 0.293
Размер потока : 3,25 Гбайт (70%)
Заголовок : Игра смерти / Game of Death [Uncut] (2010)
Библиотека кодирования : x264 core 114 r1913 5fd3dce
Настройки программы : cabac=1 / ref=5 / deblock=1:0:0 / analyse=0x3:0x113 / me=umh / subme=7 / psy=1 / psy_rd=1.00:0.00 / mixed_ref=1 / me_range=16 / chroma_me=1 / trellis=1 / 8x8dct=1 / cqm=0 / deadzone=21,11 / fast_pskip=0 / chroma_qp_offset=-2 / threads=12 / sliced_threads=0 / nr=0 / decimate=1 / interlaced=0 / constrained_intra=0 / bframes=3 / b_pyramid=2 / b_adapt=1 / b_bias=0 / direct=1 / weightb=1 / open_gop=0 / weightp=2 / keyint=250 / keyint_min=23 / scenecut=40 / intra_refresh=0 / rc_lookahead=40 / rc=2pass / mbtree=1 / bitrate=4884 / ratetol=1.0 / qcomp=0.60 / qpmin=0 / qpmax=69 / qpstep=4 / cplxblur=20.0 / qblur=0.5 / ip_ratio=1.40 / aq=1:1.00
Язык : English
Default : Да
Forced : Нет
Аудио #1
Идентификатор : 2
Формат : AC-3
Формат/Информация : Audio Coding 3
Расширение режима : CM (complete main)
Параметр Endianness формата : Big
Идентификатор кодека : A_AC3
Продолжительность : 1 ч. 37 м.
Вид битрейта : Постоянный
Битрейт : 192 Кбит/сек
Каналы : 2 канала
Расположение каналов : Front: L R
Частота : 48,0 КГц
Метод сжатия : С потерями
Размер потока : 134 Мбайт (3%)
Заголовок : Профессиональный (многоголосый закадровый) Кинопоказ
Язык : Russian
Default : Да
Forced : Нет
Аудио #2
Идентификатор : 3
Формат : AC-3
Формат/Информация : Audio Coding 3
Расширение режима : CM (complete main)
Параметр Endianness формата : Big
Идентификатор кодека : A_AC3
Продолжительность : 1 ч. 37 м.
Вид битрейта : Постоянный
Битрейт : 192 Кбит/сек
Каналы : 2 канала
Расположение каналов : Front: L R
Частота : 48,0 КГц
Метод сжатия : С потерями
Размер потока : 134 Мбайт (3%)
Заголовок : Профессиональный (многоголосый закадровый) РенТВ
Язык : Russian
Default : Нет
Forced : Нет
Аудио #3
Идентификатор : 4
Формат : DTS
Формат/Информация : Digital Theater Systems
Режим : 16
Параметр Endianness формата : Big
Идентификатор кодека : A_DTS
Продолжительность : 1 ч. 37 м.
Вид битрейта : Постоянный
Битрейт : 1509 Кбит/сек
Каналы : 6 каналов
Расположение каналов : Front: L C R, Side: L R, LFE
Частота : 48,0 КГц
Битовая глубина : 24 бит
Метод сжатия : С потерями
Размер потока : 1,03 Гбайт (22%)
Язык : English
Default : Нет
Forced : Нет
Скриншоты Торрент перезалит 26.07.15 - добавлена озвучка Кинопоказ
Скачать

Скачать торрент!

Как скачивать? · Что такое торрент? · Рейтинг и ограничения

Сайт не распространяет и не хранит электронные версии произведений, а лишь предоставляет доступ к создаваемому пользователями каталогу ссылок на торрент-файлы, которые содержат только списки хеш-сумм

[Профиль] [ЛС]
Показать сообщения:    
Ответить на тему

Текущее время: Сегодня 04:46

Часовой пояс: GMT + 4



Вы не можете начинать темы
Вы не можете отвечать на сообщения
Вы не можете редактировать свои сообщения
Вы не можете удалять свои сообщения
Вы не можете голосовать в опросах
Вы не можете прикреплять файлы к сообщениям
Вы не можете скачивать файлы