Самурай / Der Samurai (Тилль Клейнерт / Till Kleinert) [2014, Германия, ужасы, триллер, детектив, BDRip 720p] Sub Rus + Original Ger

Ответить на тему
 
Автор Сообщение

user ®

Стаж: 7 лет 7 месяцев

Сообщений: 20008

Пост Пост: #1 от 26-Июл-2015 16:27

[Цитировать]

Самурай / Der Samurai
Страна: Германия
Жанр: Ужасы, триллер, детектив
Год выпуска: 2014
Продолжительность: 01:19:35
Перевод: Субтитры (Chillerama)
Cубтитры: русские
Оригинальная аудиодорожка: немецкий
Режиссер: Тилль Клейнерт / Till Kleinert
В ролях: Михель Диркс, Пит Буковски, Уве Пройсс, Кристофер Кейн, Ульрике Блиферт, Ивонн Юнг Хи Гернот Элвин Кунерт
Описание: Молодой полицейский Якоб обороняет немецкую деревню от забредающих туда волков, и это его основное занятие. Получив сначала странную посылку, адресованную на имя «Волк», а затем странный звонок с просьбой доставить ее в лес, Якоб решает: ладно, окей.
Доп. информация: Дипломные фильмы молодых немецких кинематографистов при определенном раскладе имеют хороший шанс оформить какую-нибудь очередную волну. Легкость, раскрепощенность и полное отсутствие боязни сделать что-то не то — главные качества сегодняшних выпускников региональных бундес-киношкол. Прошлогодняя бытовая симфония приятного хипстера Рамона Цюрхера The Strange Little Cat обращала на себя внимание удивительной живостью и непринужденностью, у Тилля Кляйнерта расклад, кажется, полностью такой же. Werewolf-эстетика, трансвестит с катаной, шуточки пополам с серьезностью, синти-поп где хочется и какой хочется — Der Samurai видится синхронным европейским ответом Ане Лили Амирпур, молодой девушке, снявшей кино про вампиршу в чадре, которая вместо того чтобы думать о крови, пугала маленьких мальчиков и разъезжала по ночам на скейтборде.

Сэмпл: http://sendfile.su/1140314
Качество видео: BDRip 720p
Формат видео: MKV
Видео: AVC, 1280x720 (16:9), 23.976 fps, 4385 kbps
Аудио: DTS, 48.0 KHz, 1509 kbps, 24 bits, 6 ch
MediaInfo
General
Unique ID : 175395373053692693240573286199592099818 (0x83F3EB8C23B05381B227C373EA321FEA)
Complete name : R:\Der Samurai (2014).mkv
Format : Matroska
Format version : Version 4 / Version 2
File size : 3.28 GiB
Duration : 1h 19mn
Overall bit rate : 5 894 Kbps
Encoded date : UTC 2015-07-25 13:00:20
Writing application : mkvmerge v7.8.0 ('River Man') 32bit built on Mar 27 2015 16:18:02
Writing library : libebml v1.3.1 + libmatroska v1.4.2
_STATISTICS_WRITING_APP : mkvmerge v7.8.0 ('River Man') 32bit built on Mar 27 2015 16:18:02
_STATISTICS_WRITING_DATE_UTC : 2015-07-25 13:00:20
_STATISTICS_TAGS : BPS DURATION NUMBER_OF_FRAMES NUMBER_OF_BYTES
DURATION : 01:05:28.959000000
NUMBER_OF_FRAMES : 336
NUMBER_OF_BYTES : 14866
Video
ID : 1
Format : AVC
Format/Info : Advanced Video Codec
Format profile : High@L4.1
Format settings, CABAC : Yes
Format settings, ReFrames : 5 frames
Codec ID : V_MPEG4/ISO/AVC
Duration : 1h 19mn
Bit rate : 4 385 Kbps
Width : 1 280 pixels
Height : 720 pixels
Display aspect ratio : 16:9
Frame rate mode : Constant
Frame rate : 23.976 fps
Color space : YUV
Chroma subsampling : 4:2:0
Bit depth : 8 bits
Scan type : Progressive
Bits/(Pixel*Frame) : 0.198
Stream size : 2.37 GiB (72%)
Writing library : x264 core 146 r2538 121396c
Encoding settings : cabac=1 / ref=5 / deblock=1:0:0 / analyse=0x3:0x133 / me=umh / subme=7 / psy=1 / psy_rd=1.00:0.00 / mixed_ref=1 / me_range=16 / chroma_me=1 / trellis=1 / 8x8dct=1 / cqm=0 / deadzone=21,11 / fast_pskip=0 / chroma_qp_offset=-2 / threads=60 / lookahead_threads=5 / sliced_threads=0 / nr=0 / decimate=1 / interlaced=0 / bluray_compat=0 / constrained_intra=0 / bframes=3 / b_pyramid=2 / b_adapt=2 / b_bias=0 / direct=3 / weightb=1 / open_gop=0 / weightp=2 / keyint=250 / keyint_min=23 / scenecut=40 / intra_refresh=0 / rc_lookahead=50 / rc=2pass / mbtree=1 / bitrate=4385 / ratetol=1.0 / qcomp=0.60 / qpmin=0 / qpmax=69 / qpstep=4 / cplxblur=20.0 / qblur=0.5 / ip_ratio=1.40 / aq=1:1.00
Language : English
Default : Yes
Forced : No
_STATISTICS_WRITING_APP : mkvmerge v7.8.0 ('River Man') 32bit built on Mar 27 2015 16:18:02
_STATISTICS_WRITING_DATE_UTC : 2015-07-25 13:00:20
_STATISTICS_TAGS : BPS DURATION NUMBER_OF_FRAMES NUMBER_OF_BYTES
DURATION : 01:19:35.404000000
NUMBER_OF_FRAMES : 114495
NUMBER_OF_BYTES : 2616278556
Audio
ID : 2
Format : DTS
Format/Info : Digital Theater Systems
Mode : 16
Format settings, Endianness : Big
Codec ID : A_DTS
Duration : 1h 19mn
Bit rate mode : Constant
Bit rate : 1 509 Kbps
Channel(s) : 6 channels
Channel positions : Front: L C R, Side: L R, LFE
Sampling rate : 48.0 KHz
Bit depth : 24 bits
Compression mode : Lossy
Stream size : 859 MiB (26%)
Language : German
Default : Yes
Forced : No
Фрагмент субтитров
26
00:07:22,375 --> 00:07:24,917
Пойдешь на вечеринку?
27
00:07:24,959 --> 00:07:26,333
Ну, я немного занят.
28
00:07:26,917 --> 00:07:28,542
Отстой.
29
00:07:30,750 --> 00:07:33,291
А правда, что у тебя есть пистолет?
30
00:07:33,333 --> 00:07:36,625
- Да, на участке.
- Круто.
31
00:07:36,667 --> 00:07:40,917
- И как, ты кого-нибудь уже завалил?
- Якоб ни разу не стрелял из своего пистолета.
32
00:07:46,375 --> 00:07:48,083
Умеешь водить?
33
00:07:48,625 --> 00:07:50,375
Конечно.
34
00:07:51,709 --> 00:07:53,834
Тогда я попрошу вас поменяться местами.
35
00:08:00,500 --> 00:08:02,458
Уверен, что ты этого хочешь?
36
00:08:04,959 --> 00:08:07,667
Без разницы, чего я хочу.
37
00:08:07,709 --> 00:08:10,583
Ты выпил и не можешь вести.
Скриншот c названием фильма Скриншоты
Скачать

Скачать торрент!

Как скачивать? · Что такое торрент? · Рейтинг и ограничения

Сайт не распространяет и не хранит электронные версии произведений, а лишь предоставляет доступ к создаваемому пользователями каталогу ссылок на торрент-файлы, которые содержат только списки хеш-сумм

[Профиль] [ЛС]
Показать сообщения:    
Ответить на тему

Текущее время: Сегодня 08:53

Часовой пояс: GMT + 4



Вы не можете начинать темы
Вы не можете отвечать на сообщения
Вы не можете редактировать свои сообщения
Вы не можете удалять свои сообщения
Вы не можете голосовать в опросах
Вы не можете прикреплять файлы к сообщениям
Вы не можете скачивать файлы