В пыли звезд / Im Staub der Sterne (Готтфрид Кольдиц / Gottfried Kolditz) [1976, Германия (ГДР), фантастика, HDTVRip 720p] VO (Иосиф) + VO (непознан) + Sub Eng + Original Ger

Ответить на тему
 
Автор Сообщение

user ®

Стаж: 7 лет 7 месяцев

Сообщений: 20008

Пост Пост: #1 от 26-Июл-2015 16:27

[Цитировать]

В пыли звезд / Im Staub der Sterne
Страна: Румыния, Германия (ГДР)
Студия: VEB DEFA-Studio für Spielfilme, Künstlerische Arbeitsgruppe ''Futurum''
Жанр: Фантастика
Год выпуска: 1976
Продолжительность: 01:35:47
Перевод 1: Одноголосый закадровый Иосиф
Перевод 2: Одноголосый закадровый непознан
Cубтитры: английские
Оригинальная аудиодорожка: немецкий
Режиссер: Готтфрид Кольдиц / Gottfried Kolditz
В ролях: Яна Брейхова, Альфред Штруве, Эккехард Шелл, Милан Бели, Сильвия Попович, Виолетта Андрей, Леон Немчик, Реджин Хайнце, Микаэл Берекет, Штефан Михэилеску-Брэила
Описание: Космический корабль с планеты Цинро по призыву о помощи прилетает на планету Тем 4. Хозяева планеты, недовольные вторжением непрошеных гостей, принимают все меры, чтобы стереть из памяти экипажа цель их посещения планеты. Но не все космонавты попадают под промывку мозгов. Чтобы докопаться до истины, один из членов команды отправляется на зонде в разведывательный полёт. Тут то и выясняется, что местное население порабощено пришельцами. Космонавта захватывают в плен и жестоко пытают. В поисках своего товарища командир корабля Акала отправляется на свидание с загадочным Шефом...
Сэмпл: http://sendfile.su/1140471
Сравнение с ДВД: http://screenshotcomparison.com/comparison/96963
Тип релиза: HDTVRip 720p
Контейнер: MKV
Видео: x264, 4708 кбит/с, 1200x720, 25 к/с
Аудио 1: Russian: AC3, 2 ch, 224 Кбит/с, 48.0 KHz
Аудио 2: Russian: AC3, 2 ch, 224 Кбит/с, 48.0 KHz
Аудио 3: German: AC3, 2 ch, 256 Кбит/с, 48.0 KHz
MediaInfo
General
Unique ID : 216117157601591953359620054923139922075 (0xA296A68945280DA68B4DDD82F0D8B89B)
Complete name : C:\Documents and Settings\Администратор\Мои документы\Downloads\Im Staub der Sterne 1976.mkv
Format : Matroska
Format version : Version 4 / Version 2
File size : 3.63 GiB
Duration : 1h 35mn
Overall bit rate : 5 420 Kbps
Encoded date : UTC 2014-10-23 00:28:29
Writing application : mkvmerge v6.6.0 ('The Edge Of The In Between') built on Dec 1 2013 17:55:00
Writing library : libebml v1.3.0 + libmatroska v1.4.1
Attachements : kinopoisk_ru-Im-Staub-der-Sterne-2262207--o--.jpg
Video
ID : 1
Format : AVC
Format/Info : Advanced Video Codec
Format profile : High@L3.1
Format settings, CABAC : Yes
Format settings, ReFrames : 4 frames
Codec ID : V_MPEG4/ISO/AVC
Duration : 1h 35mn
Bit rate : 4 708 Kbps
Width : 1 200 pixels
Height : 720 pixels
Display aspect ratio : 5:3
Frame rate mode : Constant
Frame rate : 25.000 fps
Color space : YUV
Chroma subsampling : 4:2:0
Bit depth : 8 bits
Scan type : Progressive
Bits/(Pixel*Frame) : 0.218
Stream size : 3.08 GiB (85%)
Title : лщіьщфудшеф
Writing library : x264 core 114 r1913 5fd3dce
Encoding settings : cabac=1 / ref=3 / deblock=1:0:0 / analyse=0x3:0x113 / me=hex / subme=7 / psy=1 / psy_rd=1.00:0.00 / mixed_ref=1 / me_range=16 / chroma_me=1 / trellis=1 / 8x8dct=1 / cqm=0 / deadzone=21,11 / fast_pskip=1 / chroma_qp_offset=-2 / threads=3 / sliced_threads=0 / nr=0 / decimate=1 / interlaced=0 / constrained_intra=0 / bframes=3 / b_pyramid=2 / b_adapt=1 / b_bias=0 / direct=1 / weightb=1 / open_gop=0 / weightp=2 / keyint=250 / keyint_min=25 / scenecut=40 / intra_refresh=0 / rc_lookahead=40 / rc=2pass / mbtree=1 / bitrate=4708 / ratetol=1.0 / qcomp=0.60 / qpmin=0 / qpmax=69 / qpstep=4 / cplxblur=20.0 / qblur=0.5 / ip_ratio=1.40 / aq=1:1.00
Language : German
Default : Yes
Forced : No
Audio #1
ID : 2
Format : AC-3
Format/Info : Audio Coding 3
Mode extension : CM (complete main)
Format settings, Endianness : Big
Codec ID : A_AC3
Duration : 1h 35mn
Bit rate mode : Constant
Bit rate : 224 Kbps
Channel(s) : 2 channels
Channel positions : Front: L R
Sampling rate : 48.0 KHz
Compression mode : Lossy
Stream size : 153 MiB (4%)
Title : Русский АО (Иосиф)
Language : Russian
Default : Yes
Forced : No
Audio #2
ID : 3
Format : AC-3
Format/Info : Audio Coding 3
Mode extension : CM (complete main)
Format settings, Endianness : Big
Codec ID : A_AC3
Duration : 1h 35mn
Bit rate mode : Constant
Bit rate : 224 Kbps
Channel(s) : 2 channels
Channel positions : Front: L R
Sampling rate : 48.0 KHz
Compression mode : Lossy
Stream size : 153 MiB (4%)
Title : Русский АО
Language : Russian
Default : No
Forced : No
Audio #3
ID : 4
Format : AC-3
Format/Info : Audio Coding 3
Mode extension : CM (complete main)
Format settings, Endianness : Big
Codec ID : A_AC3
Duration : 1h 35mn
Bit rate mode : Constant
Bit rate : 256 Kbps
Channel(s) : 2 channels
Channel positions : Front: L R
Sampling rate : 48.0 KHz
Compression mode : Lossy
Stream size : 175 MiB (5%)
Language : German
Default : No
Forced : No
Text
ID : 5
Format : UTF-8
Codec ID : S_TEXT/UTF8
Codec ID/Info : UTF-8 Plain Text
Language : English
Default : No
Forced : No
Menu
00:00:00.000 : :Chapter 01
00:05:33.160 : :Chapter 02
00:09:07.280 : :Chapter 03
00:14:20.480 : :Chapter 04
00:17:09.840 : :Chapter 05
00:25:20.360 : :Chapter 06
00:29:27.480 : :Chapter 07
00:34:48.600 : :Chapter 08
00:37:34.080 : :Chapter 09
00:40:55.640 : :Chapter 10
00:44:47.120 : :Chapter 11
00:47:23.040 : :Chapter 12
00:54:39.360 : :Chapter 13
00:58:42.400 : :Chapter 14
01:01:52.720 : :Chapter 15
01:08:39.920 : :Chapter 16
01:11:04.880 : :Chapter 17
01:14:35.040 : :Chapter 18
01:20:33.320 : :Chapter 19
01:28:29.080 : :Chapter 20
01:31:32.360 : :Chapter 21
Скриншоты
Скачать

Скачать торрент!

Как скачивать? · Что такое торрент? · Рейтинг и ограничения

Сайт не распространяет и не хранит электронные версии произведений, а лишь предоставляет доступ к создаваемому пользователями каталогу ссылок на торрент-файлы, которые содержат только списки хеш-сумм

[Профиль] [ЛС]
Показать сообщения:    
Ответить на тему

Текущее время: Сегодня 13:38

Часовой пояс: GMT + 4



Вы не можете начинать темы
Вы не можете отвечать на сообщения
Вы не можете редактировать свои сообщения
Вы не можете удалять свои сообщения
Вы не можете голосовать в опросах
Вы не можете прикреплять файлы к сообщениям
Вы не можете скачивать файлы