Остров сокровищ / Treasure Island (Фрейзер Кларк Хестон / Fraser Clarke Heston) [1990, США, Великобритания, приключения, экранизация, WEB-DL 720p] Dub (Варус Видео) + MVO (Селена интернешнл) + AVO (Карповский) + Sub Eng

Ответить на тему
 
Автор Сообщение

user ®

Стаж: 7 лет 7 месяцев

Сообщений: 20008

Пост Пост: #1 от 25-Июл-2015 21:54

[Цитировать]

Остров сокровищ / Treasure Island
Страна: США, Великобритания
Жанр: приключения, экранизация
Год выпуска: 1990
Продолжительность: 02:11:20
Перевод 1: Профессиональный (дублированный) Варус Видео
Перевод 2: Профессиональный (многоголосый закадровый) студия "Селена интернешнл" (OРТ)
Перевод 3: Авторский (одноголосый закадровый) Антон Карповский
Cубтитры: английские, английские SDH
Оригинальная аудиодорожка: английский
Режиссер: Фрейзер Кларк Хестон / Fraser Clarke Heston
В ролях: Чарлтон Хестон, Кристиан Бэйл, Оливер Рид, Кристофер Ли, Ричард Джонсон, Джулиан Гловер, Айла Блэр, Клив Вуд, Николас Амер, Джон Эбботт, Джеймс Койл, Майкл Халсли, Майкл Тома, Пит Постлетуэйт, Роберт Патт, Бретт Фэнси, Джон Бенфилд, Ричард Бил, Стивен Макинтош, Джеймс Космо, Билл Слоун, Дэвид Спид
Описание: Экранизация всемирно известного романа шотландского писателя Роберта Льюиса Стивенсона. Совершенно случайно в руки смелого Джима Хокинса попадает старинная морская карта, которая оказывается картой самого легендарного капитана Флинта. На ней указаны координаты острова в Атлантическом океане, где спрятаны сокровища знаменитого пирата. Вместе с бесстрашными друзьями, доктором Ливси и сквайром Трелони, на шхуне «Испаньола» Джим отправляется в опасное плавание к далекому острову. Но случилось так, что на этом же судне в плавание отправились и пираты — бывшие члены команды капитана Флинта. Во главе шайки стоит Джон Сильвер - коварный и кровожадный пират, который прикинулся скромным корабельным коком...
Сэмпл: http://multi-up.com/1059880
Качество: WEB-DL 720p
Контейнер: MKV
Видео: 1280x720 (16:9), 23.976 fps, MPEG4/ISO/AVC, 4154 kbps
Аудио 1: Russian AC3, 48 kHz, 2ch, 192 kbps
Аудио 2: Russian AC3, 48 kHz, 2ch, 192 kbps
Аудио 3: Russian AC3, 48 kHz, 2ch, 192 kbps
Аудио 4: English AC3, 48 kHz, 2ch, 192 kbps
Аудио 5: English AC3, 48 kHz, 2ch, 192 kbps (комментарии режиссера)
MediaInfo
Format : Matroska
File size : 4.79 GiB
Duration : 2h 11mn
Overall bit rate : 5 218 Kbps
Movie name : Treasure.Island.by_rohh.1990.WEB-DL.720p
Encoded date : UTC 2015-07-25 05:36:35
Writing application : mkvmerge v4.5.0 ('Speed of Light') сборка от Feb 15 2011 12:50:20
Writing library : libebml v1.2.0 + libmatroska v1.1.0
Video
ID : 1
Format : AVC
Format/Info : Advanced Video Codec
Format profile : High@L3.1
Format settings, CABAC : No
Format settings, ReFrames : 2 frames
Muxing mode : Container profile=Unknown@3.1
Codec ID : V_MPEG4/ISO/AVC
Duration : 2h 11mn
Bit rate : 4 154 Kbps
Width : 1 280 pixels
Height : 720 pixels
Display aspect ratio : 16:9
Frame rate : 23.976 fps
Resolution : 24 bits
Colorimetry : 4:2:0
Scan type : Progressive
Bits/(Pixel*Frame) : 0.188
Stream size : 3.81 GiB (80%)
Title : Treasure.Island.by_rohh.1990.WEB-DL.720p
colour_primaries : BT.709-5, BT.1361, IEC 61966-2-4, SMPTE RP177
transfer_characteristics : BT.709-5, BT.1361
matrix_coefficients : BT.709-5, BT.1361, IEC 61966-2-4 709, SMPTE RP177
Audio #1
ID : 2
Format : AC-3
Format/Info : Audio Coding 3
Codec ID : A_AC3
Duration : 2h 11mn
Bit rate mode : Constant
Bit rate : 192 Kbps
Channel(s) : 2 channels
Channel positions : L R
Sampling rate : 48.0 KHz
Stream size : 180 MiB (4%)
Title : Dub (Варус видео)
Language : Russian
Audio #2
ID : 3
Format : AC-3
Format/Info : Audio Coding 3
Codec ID : A_AC3
Duration : 2h 11mn
Bit rate mode : Constant
Bit rate : 192 Kbps
Channel(s) : 2 channels
Channel positions : L R
Sampling rate : 48.0 KHz
Stream size : 180 MiB (4%)
Title : MVO (ОРТ)
Language : Russian
Audio #3
ID : 4
Format : AC-3
Format/Info : Audio Coding 3
Codec ID : A_AC3
Duration : 2h 11mn
Bit rate mode : Constant
Bit rate : 192 Kbps
Channel(s) : 2 channels
Channel positions : L R
Sampling rate : 48.0 KHz
Stream size : 180 MiB (4%)
Title : AVO (Антон Карповский)
Language : Russian
Audio #4
ID : 5
Format : AC-3
Format/Info : Audio Coding 3
Format profile : Dolby Digital
Codec ID : A_AC3
Duration : 2h 11mn
Bit rate mode : Constant
Bit rate : 192 Kbps
Channel(s) : 2 channels
Channel positions : L R
Sampling rate : 48.0 KHz
Stream size : 180 MiB (4%)
Title : eng
Audio #5
ID : 6
Format : AC-3
Format/Info : Audio Coding 3
Codec ID : A_AC3
Duration : 2h 11mn
Bit rate mode : Constant
Bit rate : 192 Kbps
Channel(s) : 2 channels
Channel positions : L R
Sampling rate : 48.0 KHz
Stream size : 180 MiB (4%)
Title : comments
Text #1
ID : 7
Format : UTF-8
Codec ID : S_TEXT/UTF8
Codec ID/Info : UTF-8 Plain Text
Title : eng
Text #2
ID : 8
Format : UTF-8
Codec ID : S_TEXT/UTF8
Codec ID/Info : UTF-8 Plain Text
Title : eng (SDH)
Menu
00:00:00.000 : en:1
00:09:41.000 : en:2
00:21:48.000 : en:3
00:29:46.000 : en:4
00:40:26.000 : en:5
00:50:09.000 : en:6
00:59:28.000 : en:7
01:10:08.000 : en:8
01:19:27.000 : en:9
01:30:10.000 : en:10
01:41:28.000 : en:11
01:50:14.000 : en:12
02:00:29.000 : en:13
Скриншоты
Скачать

Скачать торрент!

Как скачивать? · Что такое торрент? · Рейтинг и ограничения

Сайт не распространяет и не хранит электронные версии произведений, а лишь предоставляет доступ к создаваемому пользователями каталогу ссылок на торрент-файлы, которые содержат только списки хеш-сумм

[Профиль] [ЛС]
Показать сообщения:    
Ответить на тему

Текущее время: Сегодня 20:12

Часовой пояс: GMT + 4



Вы не можете начинать темы
Вы не можете отвечать на сообщения
Вы не можете редактировать свои сообщения
Вы не можете удалять свои сообщения
Вы не можете голосовать в опросах
Вы не можете прикреплять файлы к сообщениям
Вы не можете скачивать файлы