Лицо ангела / The Face of an Angel (Майкл Уинтерботтом / Michael Winterbottom) [2014, Великобритания, Италия, Испания, триллер, драма, BDRip 720p] MVO + Sub Eng + Original Eng

Ответить на тему
 
Автор Сообщение

user ®

Стаж: 7 лет 7 месяцев

Сообщений: 20008

Пост Пост: #1 от 24-Июл-2015 21:09

[Цитировать]

Лицо ангела / The Face of an Angel
Страна: Великобритания, Италия, Испания
Студия: BBC Films, Cattleya, Multitrade
Жанр: триллер, драма
Год выпуска: 2014
Продолжительность: 01:41:28
Перевод: Профессиональный (многоголосый закадровый) (Line)
Cубтитры: английские
Оригинальная аудиодорожка: английский
Режиссер: Майкл Уинтерботтом / Michael Winterbottom
В ролях: Кара Делевинь, Кейт Бекинсейл, Даниэль Брюль, Женевьев Гонт, Ава Акрес, Люси Коху, Сара Стюарт, Сай Беннетт, Алистэр Петри, Рози Феллнер
Описание: После прогремевшего на весь мир убийства молодой девушки, в итальянский город Сиена приезжает молодой режиссер для подготовки к съемкам фильма по мотивам преступления. Там он знакомится с американской журналисткой Симоной Форд, недавно написавшей об этом противоречивую книгу. В городе правят бал обезумевшие репортеры со всего мира, вываливающие на своих зрителей у телеэкранов груды «грязного белья» в погоне за кричащими заголовками. А об убитой девушке абсолютно забыли…

Тип релиза: BDRip 720p
Контейнер: MKV
Видео: MPEG-4 AVC, 5570 Кбит/с, 1280x536, 23,976 fps
Аудио: Rus, AC3, 192 kb/s (2 ch), 48 kHz
Аудио 2: Eng, DTS, 1510 kb/s (6 ch), 48 kHz
Формат субтитров: softsub (SRT)
MediaInfo
Format : Matroska
Format version : Version 4 / Version 2
File size : 5.28 GiB
Duration : 1h 41mn
Overall bit rate : 7 418 Kbps
Movie name : Лицо ангела. (Tonik)
Encoded date : UTC 2015-07-23 02:55:31
Writing application : mkvmerge v7.1.0 ('Good Love') 64bit built on Jul 27 2014 13:06:55
Writing library : libebml v1.3.0 + libmatroska v1.4.1
_STATISTICS_WRITING_APP : mkvmerge v7.1.0 ('Good Love') 64bit built on Jul 27 2014 13:06:55
_STATISTICS_WRITING_DATE_UTC : 2015-07-23 02:55:31
_STATISTICS_TAGS : BPS DURATION NUMBER_OF_FRAMES NUMBER_OF_BYTES
DURATION : 01:34:45.221000000
NUMBER_OF_FRAMES : 1570
NUMBER_OF_BYTES : 51439
Video
ID : 1
Format : AVC
Format/Info : Advanced Video Codec
Format profile : High@L4.1
Format settings, CABAC : Yes
Format settings, ReFrames : 12 frames
Codec ID : V_MPEG4/ISO/AVC
Duration : 1h 41mn
Bit rate : 5 570 Kbps
Width : 1 280 pixels
Height : 536 pixels
Display aspect ratio : 2.40:1
Frame rate mode : Constant
Frame rate : 23.976 fps
Color space : YUV
Chroma subsampling : 4:2:0
Bit depth : 8 bits
Scan type : Progressive
Bits/(Pixel*Frame) : 0.339
Stream size : 3.96 GiB (75%)
Writing library : x264 core 146 r2538 121396c
Encoding settings : cabac=1 / ref=12 / deblock=1:-3:-3 / analyse=0x3:0x133 / me=umh / subme=11 / psy=1 / psy_rd=1.00:0.00 / mixed_ref=1 / me_range=32 / chroma_me=1 / trellis=2 / 8x8dct=1 / cqm=0 / deadzone=21,11 / fast_pskip=0 / chroma_qp_offset=-2 / threads=12 / lookahead_threads=3 / sliced_threads=0 / nr=0 / decimate=1 / interlaced=0 / bluray_compat=0 / constrained_intra=0 / bframes=10 / b_pyramid=2 / b_adapt=2 / b_bias=0 / direct=1 / weightb=1 / open_gop=0 / weightp=2 / keyint=250 / keyint_min=23 / scenecut=40 / intra_refresh=0 / rc=crf / mbtree=0 / crf=15.5 / qcomp=0.60 / qpmin=0 / qpmax=69 / qpstep=4 / ip_ratio=1.40 / pb_ratio=1.30 / aq=1:1.00
Language : English
Default : Yes
Forced : No
DURATION : 01:41:51.528000000
NUMBER_OF_FRAMES : 146530
NUMBER_OF_BYTES : 4365482605
_STATISTICS_WRITING_APP : mkvmerge v7.1.0 ('Good Love') 64bit built on Jul 27 2014 13:06:55
_STATISTICS_WRITING_DATE_UTC : 2015-07-23 02:55:31
_STATISTICS_TAGS : BPS DURATION NUMBER_OF_FRAMES NUMBER_OF_BYTES
Audio #1
ID : 2
Format : AC-3
Format/Info : Audio Coding 3
Mode extension : CM (complete main)
Format settings, Endianness : Big
Codec ID : A_AC3
Duration : 1h 41mn
Bit rate mode : Constant
Bit rate : 192 Kbps
Channel(s) : 2 channels
Channel positions : Front: L R
Sampling rate : 48.0 KHz
Bit depth : 16 bits
Compression mode : Lossy
Stream size : 140 MiB (3%)
Language : Russian
Default : Yes
Forced : No
Audio #2
ID : 3
Format : DTS
Format/Info : Digital Theater Systems
Mode : 16
Format settings, Endianness : Big
Codec ID : A_DTS
Duration : 1h 41mn
Bit rate mode : Constant
Bit rate : 1 509 Kbps
Channel(s) : 6 channels
Channel positions : Front: L C R, Side: L R, LFE
Sampling rate : 48.0 KHz
Bit depth : 16 bits
Compression mode : Lossy
Stream size : 1.07 GiB (20%)
Language : English
Default : No
Forced : No
Text
ID : 4
Format : UTF-8
Codec ID : S_TEXT/UTF8
Codec ID/Info : UTF-8 Plain Text
Language : English
Default : No
Forced : No
Menu
00:00:00.000 : en:00:00:00.000
00:09:45.710 : en:00:09:45.710
00:22:01.779 : en:00:22:01.779
00:31:27.677 : en:00:31:27.677
00:40:47.445 : en:00:40:47.445
00:52:13.005 : en:00:52:13.005
01:03:02.320 : en:01:03:02.320
01:11:16.230 : en:01:11:16.230
01:26:01.114 : en:01:26:01.114
01:36:35.790 : en:01:36:35.790
Скриншоты
Скачать

Скачать торрент!

Как скачивать? · Что такое торрент? · Рейтинг и ограничения

Сайт не распространяет и не хранит электронные версии произведений, а лишь предоставляет доступ к создаваемому пользователями каталогу ссылок на торрент-файлы, которые содержат только списки хеш-сумм

[Профиль] [ЛС]
Показать сообщения:    
Ответить на тему

Текущее время: Сегодня 15:57

Часовой пояс: GMT + 4



Вы не можете начинать темы
Вы не можете отвечать на сообщения
Вы не можете редактировать свои сообщения
Вы не можете удалять свои сообщения
Вы не можете голосовать в опросах
Вы не можете прикреплять файлы к сообщениям
Вы не можете скачивать файлы