Дивергент, глава 2: Инсургент / Insurgent (Роберт Швентке / Robert Schwentke) [2015, США, Фантастика, приключения, триллер, HDRip] Dub (Line) + Original Eng

Ответить на тему
 
Автор Сообщение

user ®

Стаж: 7 лет 7 месяцев

Сообщений: 20008

Пост Пост: #1 от 24-Июл-2015 02:30

[Цитировать]

Дивергент, глава 2: Инсургент / Insurgent
Страна: США
Жанр: Фантастика, приключения, триллер
Год выпуска: 2015
Продолжительность: 01:59:00
Перевод: Профессиональный (дублированный) Line
Cубтитры: отсутствуют
Оригинальная аудиодорожка: английский
Режиссер: Роберт Швентке / Robert Schwentke
В ролях: Шейлин Вудли, Тео Джеймс, Кейт Уинслет,
Джай Кортни, Энсел Элгорт, Майлз Теллер, Зои Кравиц,
Мекхай Файфер, Наоми Уоттс, Октавия Спенсер, и др.
Описание: В новой главе антиутопии об обществе, где всё расставлено по полочкам,
а любая индивидуальность подлежит искоренению, Трис должна найти способ борьбы
со страшной системой, уничтожающей её близких. Кто из них на очереди? Она узнаёт
всё больше страшных подробностей, стоящих за кажущимся порядком, и уже не может
не видеть, что в её мире пора что-то менять. Но главное в этой борьбе — справиться
с расколом, который враг порождает в её собственной душе...
Качество видео: HDRip
Формат видео: AVI
Vidео: XviD, 720x304 (2.35:1), 23.976 fps, ~1813 kbps avg, 0.345 bit/pixel
Аudiо #1: Russian (Dolby AC3, 2 ch) CBR 256 kbps, Front: L R, 48.0 KHz 16 bits dual-channel mono
Аudiо #2: English (Dolby AC3, 6 ch) CBR 384 kbps, Front: L C R, Side: L R, LFE, 48.0 KHz 16 bits MediaInfo
ОбщееПолное имя : R:\Insurgent_2015_HDRip_[***].aviФормат : AVIФормат/Информация : Audio Video InterleaveПрофиль формата : OpenDMLРазмер файла : 2,05 ГбайтПродолжительность : 1 ч. 59 м.Общий поток : 2471 Кбит/секПрограмма кодирования : VirtualDubMod 1.5.10.2 (build 2540/release)Библиотека кодирования : VirtualDubMod build 2540/release
ВидеоИдентификатор : 0Формат : MPEG-4 VisualПрофиль формата : Advanced Simple@L5Параметр BVOP формата : 2Параметр QPel формата : НетПараметр GMC формата : Без точки переходаПараметр матрицы формата : Default (MPEG)Идентификатор кодека : XVIDИдентификатор кодека/Подсказка : XviDПродолжительность : 1 ч. 59 м.Битрейт : 1813 Кбит/секШирина : 720 пикселейВысота : 304 пикселяСоотношение сторон : 2,35:1Частота кадров : 23,976 кадра/секЦветовое пространство : YUVСубдискретизация насыщенности : 4:2:0Битовая глубина : 8 битТип развёртки : ПрогрессивнаяМетод сжатия : С потерямиБит/(Пиксели*Кадры) : 0.345Размер потока : 1,51 Гбайт (73%)Библиотека кодирования : XviD 1.2.1 (UTC 2008-12-04)
Аудио #1Идентификатор : 1Формат : AC-3Формат/Информация : Audio Coding 3Расширение режима : CM (complete main)Параметр Endianness формата : BigИдентификатор кодека : 2000Продолжительность : 1 ч. 58 м.Вид битрейта : ПостоянныйБитрейт : 256 Кбит/секКаналы : 2 каналаРасположение каналов : Front: L RЧастота : 48,0 КГцБитовая глубина : 16 битМетод сжатия : С потерямиРазмер потока : 218 Мбайт (10%)Выравнивание : Разделение по промежуткамПродолжительность промежутка : 42 мс. (1,00 видеокадр)Время предзагрузки промежутка : 500 мс.
Аудио #2Идентификатор : 2Формат : AC-3Формат/Информация : Audio Coding 3Расширение режима : CM (complete main)Параметр Endianness формата : BigИдентификатор кодека : 2000Продолжительность : 1 ч. 59 м.Вид битрейта : ПостоянныйБитрейт : 384 Кбит/секКаналы : 6 каналовРасположение каналов : Front: L C R, Side: L R, LFEЧастота : 48,0 КГцБитовая глубина : 16 битМетод сжатия : С потерямиРазмер потока : 327 Мбайт (16%)Выравнивание : Разделение по промежуткамПродолжительность промежутка : 42 мс. (1,00 видеокадр)Время предзагрузки промежутка : 500 мс.
Скриншот c названием фильма Скриншоты Раздача: По возможности!!!
Скачать

Скачать торрент!

Как скачивать? · Что такое торрент? · Рейтинг и ограничения

Сайт не распространяет и не хранит электронные версии произведений, а лишь предоставляет доступ к создаваемому пользователями каталогу ссылок на торрент-файлы, которые содержат только списки хеш-сумм

[Профиль] [ЛС]
Показать сообщения:    
Ответить на тему

Текущее время: Сегодня 05:58

Часовой пояс: GMT + 4



Вы не можете начинать темы
Вы не можете отвечать на сообщения
Вы не можете редактировать свои сообщения
Вы не можете удалять свои сообщения
Вы не можете голосовать в опросах
Вы не можете прикреплять файлы к сообщениям
Вы не можете скачивать файлы