Тесты для настоящих мужчин (Андрей Разенков) [1998, драма, DVDRip-AVC]

Ответить на тему
 
Автор Сообщение

user ®

Стаж: 7 лет 7 месяцев

Сообщений: 20008

Пост Пост: #1 от 23-Июл-2015 23:24

[Цитировать]

Тесты для настоящих мужчин
Жанр: драма
Год выпуска: 1998
Продолжительность: 01:08:50
Режиссёр: Андрей Разенков
В ролях: Эльвира Болгова, Алексей Серебряков, Анна Каменкова, Николай Ерёменко мл., Виталий Соломин, Игорь Ветров, Никита Высоцкий, Зоя Зелинская.
Описание: В одном из крупных городов России живут мать Анна и дочь Эльвира. Анна — профессиональный психолог. В молодости муж не сумел ее защитить от нападения хулиганов. И теперь она не хочет, чтобы с дочерью рядом был подобный ему. Поэтому друг дочери Алексей — шаг за шагом — проходит полный цикл тестирования с неслучайным попаданием в экстремальные ситуации…
Сэмпл: http://multi-up.com/1059792
Качество видео: DVDRip-AVC [url=http://***/forum/viewtopic.php?t=199281]Исходник[/url]
Формат видео: MKV
Видео: 696x410 (16:9) @ 742x410, 25.000 fps, AVC, ~2500 Kbps, 0.350 bits/pixel
Аудио: 48.0 KHz, AC3, 6 ch, 448 Kbps

Сравнение
[url=http://***/forum/viewtopic.php?t=475993]http://***/forum/viewtopic.php?t=475993[/url]
http://screenshotcomparison.com/comparison/136086/picture:0
Log
avs4x264.exe: -L x264_64.exe --pass 2 --bitrate 2500 --preset medium --ref 10 --deblock -1:-1 --merange 32 --bframes 10 --direct auto --b-adapt 2 --trellis 2 --no-fast-pskip --psy-rd 1.00:0.10 --partitions all --subme 10 --me umh --rc-lookahead 50 --sar 16:15 --stats
raw [info]: 696x410p 16:15 @ 25/1 fps (cfr)
x264 [info]: using SAR=16/15
x264 [info]: using cpu capabilities: MMX2 SSE2Fast LZCNT
x264 [info]: profile High, level 3.1
x264 [info]: frame I:579 Avg QP:17.77 size: 55075
x264 [info]: frame P:21367 Avg QP:20.66 size: 24412
x264 [info]: frame B:81310 Avg QP:23.41 size: 9067
x264 [info]: consecutive B-frames: 1.6% 2.4% 7.6% 13.4% 11.9% 53.9% 4.5% 1.6% 2.2% 0.3% 0.5%
x264 [info]: mb I I16..4: 8.2% 59.2% 32.7%
x264 [info]: mb P I16..4: 1.8% 15.8% 3.7% P16..4: 37.2% 24.4% 14.2% 1.0% 0.3% skip: 1.6%
x264 [info]: mb B I16..4: 0.2% 2.4% 0.3% B16..8: 41.9% 12.5% 3.4% direct:15.3% skip:24.1% L0:40.0% L1:39.6% BI:20.4%
x264 [info]: 8x8 transform intra:75.4% inter:58.4%
x264 [info]: direct mvs spatial:97.6% temporal:2.4%
x264 [info]: coded y,uvDC,uvAC intra: 91.5% 84.6% 60.4% inter: 47.4% 38.6% 6.0%
x264 [info]: i16 v,h,dc,p: 33% 17% 15% 35%
x264 [info]: i8 v,h,dc,ddl,ddr,vr,hd,vl,hu: 12% 11% 8% 9% 13% 13% 12% 11% 11%
x264 [info]: i4 v,h,dc,ddl,ddr,vr,hd,vl,hu: 15% 11% 5% 8% 12% 14% 11% 11% 13%
x264 [info]: i8c dc,h,v,p: 36% 21% 23% 20%
x264 [info]: Weighted P-Frames: Y:5.8% UV:1.5%
x264 [info]: ref P L0: 37.2% 13.9% 20.2% 6.8% 6.8% 4.0% 4.2% 2.1% 2.5% 2.0% 0.3% 0.0%
x264 [info]: ref B L0: 74.6% 12.1% 4.8% 2.7% 1.9% 1.7% 1.3% 0.6% 0.3%
x264 [info]: ref B L1: 93.9% 6.1%
x264 [info]: kb/s:2500.09
x264 [total]: encoded 103256 frames, 11.32 fps, 2500.09 kb/s
MediaInfo
General
Unique ID : 232210105898594780824315987101655464931 (0xAEB20A25733B0E41A27FE48AFF277BE3)
Complete name : C:\Тесты для настоящих мужчин.mkv
Format : Matroska
Format version : Version 4 / Version 2
File size : 1.42 GiB
Duration : 1h 8mn
Overall bit rate : 2 950 Kbps
Encoded date : UTC 2015-07-23 15:03:29
Writing application : mkvmerge v8.1.0 ('Psychedelic Postcard') 64bit
Writing library : libebml v1.3.1 + libmatroska v1.4.2
DURATION : 01:08:49.792000000
NUMBER_OF_FRAMES : 129056
NUMBER_OF_BYTES : 231268352
_STATISTICS_WRITING_APP : mkvmerge v8.1.0 ('Psychedelic Postcard') 64bit
_STATISTICS_WRITING_DATE_UT : 2015-07-23 15:03:29
_STATISTICS_TAGS : BPS DURATION NUMBER_OF_FRAMES NUMBER_OF_BYTES
Video
ID : 1
Format : AVC
Format/Info : Advanced Video Codec
Format profile : High@L3.1
Format settings, CABAC : Yes
Format settings, ReFrames : 10 frames
Codec ID : V_MPEG4/ISO/AVC
Duration : 1h 8mn
Bit rate : 2 500 Kbps
Width : 696 pixels
Height : 410 pixels
Display aspect ratio : 16:9
Original display aspect rat : 16:9
Frame rate mode : Constant
Frame rate : 25.000 fps
Color space : YUV
Chroma subsampling : 4:2:0
Bit depth : 8 bits
Scan type : Progressive
Bits/(Pixel*Frame) : 0.350
Stream size : 1.17 GiB (83%)
Writing library : x264 core 146 r2538 121396c
Encoding settings : cabac=1 / ref=10 / deblock=1:-1:-1 / analyse=0x3:0x133 / me=umh / subme=10 / psy=1 / psy_rd=1.00:0.10 / mixed_ref=1 / me_range=32 / chroma_me=1 / trellis=2 / 8x8dct=1 / cqm=0 / deadzone=21,11 / fast_pskip=0 / chroma_qp_offset=-3 / threads=6 / lookahead_threads=1 / sliced_threads=0 / nr=0 / decimate=1 / interlaced=0 / bluray_compat=0 / constrained_intra=0 / bframes=10 / b_pyramid=2 / b_adapt=2 / b_bias=0 / direct=3 / weightb=1 / open_gop=0 / weightp=2 / keyint=250 / keyint_min=25 / scenecut=40 / intra_refresh=0 / rc_lookahead=50 / rc=2pass / mbtree=1 / bitrate=2500 / ratetol=1.0 / qcomp=0.60 / qpmin=0 / qpmax=69 / qpstep=4 / cplxblur=20.0 / qblur=0.5 / ip_ratio=1.40 / aq=1:1.00
Language : Russian
Default : Yes
Forced : No
Audio
ID : 2
Format : AC-3
Format/Info : Audio Coding 3
Mode extension : CM (complete main)
Format settings, Endianness : Big
Codec ID : A_AC3
Duration : 1h 8mn
Bit rate mode : Constant
Bit rate : 448 Kbps
Channel(s) : 6 channels
Channel positions : Front: L C R, Side: L R, LFE
Sampling rate : 48.0 KHz
Compression mode : Lossy
Stream size : 221 MiB (15%)
Language : Russian
Default : Yes
Forced : No
Menu
00:00:00.000 : :Chapter 01
00:06:08.400 : :Chapter 02
00:14:07.800 : :Chapter 03
00:18:46.800 : :Chapter 04
00:24:40.800 : :Chapter 05
00:28:48.600 : :Chapter 06
00:35:33.000 : :Chapter 07
00:42:34.800 : :Chapter 08
00:46:52.200 : :Chapter 09
00:52:43.800 : :Chapter 10
00:58:44.400 : :Chapter 11
01:05:26.400 : :Chapter 12
01:08:49.800 : :Chapter 13
Скриншоты
Скачать

Скачать торрент!

Как скачивать? · Что такое торрент? · Рейтинг и ограничения

Сайт не распространяет и не хранит электронные версии произведений, а лишь предоставляет доступ к создаваемому пользователями каталогу ссылок на торрент-файлы, которые содержат только списки хеш-сумм

[Профиль] [ЛС]
Показать сообщения:    
Ответить на тему

Текущее время: Сегодня 20:18

Часовой пояс: GMT + 4



Вы не можете начинать темы
Вы не можете отвечать на сообщения
Вы не можете редактировать свои сообщения
Вы не можете удалять свои сообщения
Вы не можете голосовать в опросах
Вы не можете прикреплять файлы к сообщениям
Вы не можете скачивать файлы