Машина времени в джакузи 2 / Hot Tub Time Machine 2 (Стив Пинк / Steve Pink) [2015, США, Фантастика, комедия, BDRip 720p] Dub (EUR) + Sub Rus, Ukr, Eng + Original Eng

Ответить на тему
 
Автор Сообщение

user ®

Стаж: 7 лет 7 месяцев

Сообщений: 20008

Пост Пост: #1 от 23-Июл-2015 20:18

[Цитировать]

Машина времени в джакузи 2 / Hot Tub Time Machine 2 Страна: США
Студия: Metro-Goldwyn-Mayer (MGM), Paramount Pictures
Жанр: Фантастика, комедия
Год выпуска: 2015
Продолжительность: 01:33:22
Перевод: Профессиональный (дублированный) [EUR]
Cубтитры: русские (full), украинские (full), английские (full, SDH)
Оригинальная аудиодорожка: английский
Режиссер: Стив Пинк / Steve Pink
В ролях: Роб Кордри, Крэйг Робинсон, Кларк Дьюк, Адам Скотт, Гиллиан Джейкобс, Чеви Чейз, Коллетт Вульф, Бьянка Хаазе, Джейсон Джонс, Кумэйл Нанджиани, Келли Стюарт, Джош Хилд, Гретхен Кёрнер, Лиза Лоб, Джессика Уильямс, Брюс Буффер, Мариана Паола Висенте, Адам Хершман, Джейсон Ричард Аллан Фостер, Фредди Пул
Описание: «Машина времени в джакузи 2» — продолжение истории о гениальных ребятах, сумевших отправиться в иное время в собственном джакузи! Неплохая стратегия — мчаться по эпохам, наслаждаясь пузырьками воды и запахом ароматной пены. На этот раз ванная предоставит компании шанс увидеть себя постаревшими на 20 лет! Это вам не прошлое, как в первый раз. Друзья ужасаются, увидев, какими им предстоит стать: лысины и седина нисколько их не прельщают. Попутно ребята пробуют развлечения нового времени, испытывая курьезы на каждом шагу. Огонька добавляет алкоголь, травка и фантастические прибамбасы новой эпохи.
Сэмпл: https://yadi.sk/i/JFHSRozFhxT8n
Тип релиза: BDRip 720p
Контейнер: MKV
Видео: MPEG-4 AVC Video / 1280x720, 5050 kbps / 23,976 fps / 16:9 / High Profile 4.1
Аудио 1: Русский / Dolby Digital Audio / 5.1 / 48 kHz / 640 kbps / DN -4dB | Профессиональный (дублированный) [EUR]
Аудио 2: English: 48 kHz, DTS, 3/2 (L,C,R,l,r) + LFE ch, ~1536.00 kbps avg |Original|
Формат субтитров: softsub (SRT)
MediaInfo
x264 [info]: frame I:1589 Avg QP:13.99 size:163254
x264 [info]: frame P:30469 Avg QP:17.29 size: 53481
x264 [info]: frame B:102262 Avg QP:18.85 size: 16059
x264 [info]: consecutive B-frames: 3.5% 2.7% 7.5% 22.4% 18.2% 36.5% 5.6% 1.9% 1.1% 0.7%
Общее
Уникальный идентификатор : 214231068241356384349072677134362642186 (0xA12B6726B59EA5B3887CF29A684E870A)
Полное имя : C:\Hot.Tub.Time.Machine-2.2015.720.by_bog3417.mkv
Формат : Matroska
Версия формата : Version 2
Размер файла : 4,69 Гбайт
Продолжительность : 1 ч. 33 м.
Общий поток : 7195 Кбит/сек
Название фильма : Hot.Tub.Time.Machine-2.2015_by_bog3417
Дата кодирования : UTC 2015-07-19 20:38:47
Программа кодирования : mkvmerge v7.9.0 ('Birds') 64bit
Библиотека кодирования : libebml v1.3.1 + libmatroska v1.4.2
Видео
Идентификатор : 1
Формат : AVC
Формат/Информация : Advanced Video Codec
Профиль формата : High@L4.1
Параметр CABAC формата : Да
Параметр ReFrames формата : 9 кадров
Идентификатор кодека : V_MPEG4/ISO/AVC
Продолжительность : 1 ч. 33 м.
Битрейт : 5050 Кбит/сек
Ширина : 1280 пикселей
Высота : 720 пикселей
Соотношение сторон : 16:9
Режим частоты кадров : Постоянный
Частота кадров : 23,976 кадра/сек
Цветовое пространство : YUV
Субдискретизация насыщенности : 4:2:0
Битовая глубина : 8 бит
Тип развёртки : Прогрессивная
Бит/(Пиксели*Кадры) : 0.229
Размер потока : 3,20 Гбайт (68%)
Заголовок : Hot.Tub.Time.Machine-2.2015_by_bog3417
Библиотека кодирования : x264 core 146 r2538 121396c
Настройки программы : cabac=1 / ref=9 / deblock=1:-3:-3 / analyse=0x3:0x33 / me=umh / subme=11 / psy=1 / psy_rd=1.00:0.00 / mixed_ref=1 / me_range=48 / chroma_me=1 / trellis=2 / 8x8dct=1 / cqm=0 / deadzone=21,11 / fast_pskip=0 / chroma_qp_offset=-2 / threads=12 / lookahead_threads=2 / sliced_threads=0 / nr=0 / decimate=0 / interlaced=0 / bluray_compat=0 / constrained_intra=0 / bframes=9 / b_pyramid=2 / b_adapt=2 / b_bias=0 / direct=3 / weightb=1 / open_gop=0 / weightp=2 / keyint=240 / keyint_min=23 / scenecut=40 / intra_refresh=0 / rc=2pass / mbtree=0 / bitrate=5050 / ratetol=1.0 / qcomp=0.60 / qpmin=0 / qpmax=69 / qpstep=4 / cplxblur=20.0 / qblur=0.5 / ip_ratio=1.40 / pb_ratio=1.30 / aq=3:0.90
Язык : English
Default : Да
Forced : Нет
Аудио #1
Идентификатор : 2
Формат : AC-3
Формат/Информация : Audio Coding 3
Расширение режима : CM (complete main)
Параметр Endianness формата : Big
Идентификатор кодека : A_AC3
Продолжительность : 1 ч. 33 м.
Вид битрейта : Постоянный
Битрейт : 640 Кбит/сек
Каналы : 6 каналов
Расположение каналов : Front: L C R, Side: L R, LFE
Частота : 48,0 КГц
Метод сжатия : С потерями
Размер потока : 427 Мбайт (9%)
Заголовок : 640@BD_EUR
Язык : Russian
Default : Да
Forced : Нет
Аудио #2
Идентификатор : 3
Формат : DTS
Формат/Информация : Digital Theater Systems
Режим : 16
Параметр Endianness формата : Big
Идентификатор кодека : A_DTS
Продолжительность : 1 ч. 33 м.
Вид битрейта : Постоянный
Битрейт : 1509 Кбит/сек
Каналы : 6 каналов
Расположение каналов : Front: L C R, Side: L R, LFE
Частота : 48,0 КГц
Битовая глубина : 24 бит
Метод сжатия : С потерями
Размер потока : 1008 Мбайт (21%)
Заголовок : Original
Язык : English
Default : Нет
Forced : Нет
Текст #1
Идентификатор : 4
Формат : UTF-8
Идентификатор кодека : S_TEXT/UTF8
Идентификатор кодека/Информация : UTF-8 Plain Text
Заголовок : Full
Язык : Russian
Default : Нет
Forced : Нет
Текст #2
Идентификатор : 5
Формат : UTF-8
Идентификатор кодека : S_TEXT/UTF8
Идентификатор кодека/Информация : UTF-8 Plain Text
Заголовок : Full
Язык : Ukrainian
Default : Нет
Forced : Нет
Текст #3
Идентификатор : 6
Формат : UTF-8
Идентификатор кодека : S_TEXT/UTF8
Идентификатор кодека/Информация : UTF-8 Plain Text
Заголовок : Full
Язык : English
Default : Нет
Forced : Нет
Текст #4
Идентификатор : 7
Формат : UTF-8
Идентификатор кодека : S_TEXT/UTF8
Идентификатор кодека/Информация : UTF-8 Plain Text
Заголовок : SDH
Язык : English
Default : Нет
Forced : Нет
Меню
00:00:00.000 : en:Chapter 01
00:07:51.137 : en:Chapter 02
00:17:17.536 : en:Chapter 03
00:23:30.283 : en:Chapter 04
00:29:24.804 : en:Chapter 05
00:35:51.232 : en:Chapter 06
00:40:03.109 : en:Chapter 07
00:46:36.293 : en:Chapter 08
00:55:45.300 : en:Chapter 09
01:01:17.590 : en:Chapter 10
01:06:49.380 : en:Chapter 11
01:13:33.909 : en:Chapter 12
01:20:22.234 : en:Chapter 13
01:28:52.618 : en:Chapter 14
Скриншоты
Скачать

Скачать торрент!

Как скачивать? · Что такое торрент? · Рейтинг и ограничения

Сайт не распространяет и не хранит электронные версии произведений, а лишь предоставляет доступ к создаваемому пользователями каталогу ссылок на торрент-файлы, которые содержат только списки хеш-сумм

[Профиль] [ЛС]
Показать сообщения:    
Ответить на тему

Текущее время: Сегодня 00:35

Часовой пояс: GMT + 4



Вы не можете начинать темы
Вы не можете отвечать на сообщения
Вы не можете редактировать свои сообщения
Вы не можете удалять свои сообщения
Вы не можете голосовать в опросах
Вы не можете прикреплять файлы к сообщениям
Вы не можете скачивать файлы