Ванильное небо / Vanilla Sky (Кэмерон Кроу / Cameron Crowe) [2001, США, Испания, фантастика, фэнтези, триллер, мелодрама, детектив, BDRip 1080p] Dub + 5x MVO + AVO + 2x VO + Original Eng + Sub Rus, Eng

Ответить на тему
 
Автор Сообщение

user ®

Стаж: 7 лет 7 месяцев

Сообщений: 20008

Пост Пост: #1 от 23-Июл-2015 20:18

[Цитировать]

Ванильное небо / Vanilla Sky
Страна: США, Испания
Жанр: фантастика, фэнтези, триллер, мелодрама, детектив
Год выпуска: 2001
Продолжительность: 02:16:01
Перевод 1: Профессиональный (дублированный) R5
Перевод 2: Профессиональный (многоголосый закадровый) Карусель v.1 *
Перевод 3: Профессиональный (многоголосый закадровый) Карусель v.2 *
Перевод 4: Профессиональный (многоголосый закадровый) Медиакомплекс
Перевод 5: Профессиональный (многоголосый закадровый) ТНТ
Перевод 6: Профессиональный (многоголосый закадровый) DVD
Перевод 7: Авторский (одноголосый закадровый) Живов
Перевод 8: Одноголосый закадровый Завгородний
Перевод 9: Одноголосый закадровый Багичев
Cубтитры: русские, английские
Оригинальная аудиодорожка: английский
Режиссер: Кэмерон Кроу / Cameron Crowe
В ролях: Том Круз, Пенелопа Крус, Кэмерон Диаз, Курт Рассел, Джейсон Ли, Ноа Тейлор, Тимоти Сполл, Тильда Суинтон, Майкл Шеннон, Дилэйна Митчелл и др.
Описание: У Дэвида было всё: деньги, свой собственный издательский дом, дорогая машина и квартира в респектабельном районе Нью-Йорка, друг-писатель и подружка Джулианна, даже враги, в лице семи управляющих его компанией, тоже были. Так он и жил без оглядки, пока в один прекрасный момент не попал в автокатастрофу и очнулся после комы инвалидом с изуродованным лицом, которое приходится прикрывать «эстетическим протезом». Его новая жизнь обернулась кошмарным сном, от которого нельзя проснуться...
Доп. информация:

СЭМПЛ
Тип релиза: BDRip 1080p
Контейнер: MKV
Видео: 1920x1080p, 23.976 fps, x264, 15000 kbps
Аудио:
1. Русский AC3 5.1, 48 khz, 448 kbps |Дубляж (R5)|
2. Русский DTS 5.1, 48 khz, 1536 kbps |Многоголосый (Карусель, вер. 1)|
3. Русский DTS 5.1, 48 khz, 1536 kbps |Многоголосый (Карусель, вер. 2)|
4. Русский AC3 5.1, 48 khz, 448 kbps |Многоголосый (Медиакомплекс)|
5. Русский AC3 2.0, 48 khz, 192 kbps |Многоголосый (ТНТ)|
6. Русский AC3 2.0, 48 khz, 192 kbps |Многоголосый (DVD)|
7. Русский AC3 5.1, 48 khz, 448 kbps |Живов|
8. Русский AC3 5.1, 48 khz, 448 kbps |Завгородний|
9. Русский AC3 5.1, 48 khz, 448 kbps |Багичев|
10. Английский DTS 5.1, 48 khz, 1536 kbps |Original|
11. Английский AC3 2.0, 48 khz, 224 kbps |Commentary by Cameron Crowe and Nancy Wilson|
Cубтитры: русские, английские (SRT)
Навигация по главам: есть
Скриншоты x264 log
x264 [info]: frame I:1140 Avg QP:17.70 size:239550
x264 [info]: frame P:47818 Avg QP:20.56 size:130756
x264 [info]: frame B:146722 Avg QP:22.90 size: 59819
MediaInfo
Общее
Уникальный идентификатор : 245575823565623272581308588649916483927 (0xB8C02EE7A76A81EAA092EA4602F14957)
Полное имя : D:\Vanilla.Sky.2001.BDRip.1080p.x264.9xRus.2xEng.mkv
Формат : Matroska
Версия формата : Version 2
Размер файла : 21,3 Гбайт
Продолжительность : 2 ч. 16 м.
Общий поток : 22,4 Мбит/сек
Название фильма : Released by shurikello
Дата кодирования : UTC 2015-07-21 09:40:15
Программа кодирования : mkvmerge v8.2.0 ('World of Adventure') 64bit
Библиотека кодирования : libebml v1.3.1 + libmatroska v1.4.2
DURATION : 02:08:19.651000000
NUMBER_OF_FRAMES : 1648
NUMBER_OF_BYTES : 61167
_STATISTICS_WRITING_APP : mkvmerge v8.2.0 ('World of Adventure') 64bit
_STATISTICS_WRITING_DATE_UTC : 2015-07-21 09:40:15
_STATISTICS_TAGS : BPS DURATION NUMBER_OF_FRAMES NUMBER_OF_BYTES
Видео
Идентификатор : 1
Формат : AVC
Формат/Информация : Advanced Video Codec
Профиль формата : High@L4.1
Параметр CABAC формата : Да
Параметр ReFrames формата : 4 кадра
Идентификатор кодека : V_MPEG4/ISO/AVC
Продолжительность : 2 ч. 16 м.
Битрейт : 15,0 Мбит/сек
Ширина : 1920 пикселей
Высота : 1080 пикселей
Соотношение сторон : 16:9
Режим частоты кадров : Постоянный
Частота кадров : 23,976 кадра/сек
Цветовое пространство : YUV
Субдискретизация насыщенности : 4:2:0
Битовая глубина : 8 бит
Тип развёртки : Прогрессивная
Бит/(Пиксели*Кадры) : 0.302
Размер потока : 13,8 Гбайт (65%)
Библиотека кодирования : x264 core 146 r2538 121396c
Настройки программы : cabac=1 / ref=4 / deblock=1:-3:-3 / analyse=0x3:0x133 / me=tesa / subme=11 / psy=1 / psy_rd=1.00:0.00 / mixed_ref=1 / me_range=48 / chroma_me=1 / trellis=2 / 8x8dct=1 / cqm=0 / deadzone=21,11 / fast_pskip=0 / chroma_qp_offset=-2 / threads=12 / lookahead_threads=2 / sliced_threads=0 / nr=0 / decimate=0 / interlaced=0 / bluray_compat=0 / constrained_intra=0 / bframes=8 / b_pyramid=2 / b_adapt=2 / b_bias=0 / direct=3 / weightb=1 / open_gop=0 / weightp=2 / keyint=240 / keyint_min=23 / scenecut=40 / intra_refresh=0 / rc_lookahead=60 / rc=2pass / mbtree=0 / bitrate=15000 / ratetol=1.0 / qcomp=0.70 / qpmin=0 / qpmax=69 / qpstep=4 / cplxblur=20.0 / qblur=0.5 / vbv_maxrate=50000 / vbv_bufsize=62500 / nal_hrd=none / filler=0 / ip_ratio=1.40 / pb_ratio=1.30 / aq=2:0.80
Язык : English
Default : Да
Forced : Нет
DURATION : 02:16:01.487000000
NUMBER_OF_FRAMES : 195680
NUMBER_OF_BYTES : 15302376330
_STATISTICS_WRITING_APP : mkvmerge v8.2.0 ('World of Adventure') 64bit
_STATISTICS_WRITING_DATE_UTC : 2015-07-21 09:40:15
_STATISTICS_TAGS : BPS DURATION NUMBER_OF_FRAMES NUMBER_OF_BYTES
Аудио #1
Идентификатор : 2
Формат : AC-3
Формат/Информация : Audio Coding 3
Расширение режима : CM (complete main)
Параметр Endianness формата : Big
Идентификатор кодека : A_AC3
Продолжительность : 2 ч. 16 м.
Вид битрейта : Постоянный
Битрейт : 448 Кбит/сек
Каналы : 6 каналов
Расположение каналов : Front: L C R, Side: L R, LFE
Частота : 48,0 КГц
Метод сжатия : С потерями
Размер потока : 436 Мбайт (2%)
Заголовок : Дубляж, AC3 5.1, 448 kbps
Язык : Russian
Default : Да
Forced : Нет
Аудио #2
Идентификатор : 3
Формат : DTS
Формат/Информация : Digital Theater Systems
Режим : 16
Параметр Endianness формата : Big
Идентификатор кодека : A_DTS
Продолжительность : 2 ч. 16 м.
Вид битрейта : Постоянный
Битрейт : 1509 Кбит/сек
Каналы : 6 каналов
Расположение каналов : Front: L C R, Side: L R, LFE
Частота : 48,0 КГц
Битовая глубина : 24 бит
Метод сжатия : С потерями
Размер потока : 1,43 Гбайт (7%)
Заголовок : Многоголосый (Карусель, вер. 1), DTS 5.1, 1536 kbps
Язык : Russian
Default : Нет
Forced : Нет
Аудио #3
Идентификатор : 4
Формат : DTS
Формат/Информация : Digital Theater Systems
Режим : 16
Параметр Endianness формата : Big
Идентификатор кодека : A_DTS
Продолжительность : 2 ч. 16 м.
Вид битрейта : Постоянный
Битрейт : 1509 Кбит/сек
Каналы : 6 каналов
Расположение каналов : Front: L C R, Side: L R, LFE
Частота : 48,0 КГц
Битовая глубина : 24 бит
Метод сжатия : С потерями
Размер потока : 1,43 Гбайт (7%)
Заголовок : Многоголосый (Карусель, вер. 2), DTS 5.1, 1536 kbps
Язык : Russian
Default : Нет
Forced : Нет
Аудио #4
Идентификатор : 5
Формат : AC-3
Формат/Информация : Audio Coding 3
Расширение режима : CM (complete main)
Параметр Endianness формата : Big
Идентификатор кодека : A_AC3
Продолжительность : 2 ч. 16 м.
Вид битрейта : Постоянный
Битрейт : 448 Кбит/сек
Каналы : 6 каналов
Расположение каналов : Front: L C R, Side: L R, LFE
Частота : 48,0 КГц
Метод сжатия : С потерями
Размер потока : 436 Мбайт (2%)
Заголовок : Многоголосый (Медиакомплекс), AC3 5.1, 448 kbps
Язык : Russian
Default : Нет
Forced : Нет
Аудио #5
Идентификатор : 6
Формат : AC-3
Формат/Информация : Audio Coding 3
Профиль формата : Dolby Digital
Расширение режима : CM (complete main)
Параметр Endianness формата : Big
Идентификатор кодека : A_AC3
Продолжительность : 2 ч. 16 м.
Вид битрейта : Постоянный
Битрейт : 192 Кбит/сек
Каналы : 2 канала
Расположение каналов : Front: L R
Частота : 48,0 КГц
Метод сжатия : С потерями
Размер потока : 187 Мбайт (1%)
Заголовок : Многоголосый (ТНТ), AC3 2.0, 192 kbps
Язык : Russian
Default : Нет
Forced : Нет
Аудио #6
Идентификатор : 7
Формат : AC-3
Формат/Информация : Audio Coding 3
Профиль формата : Dolby Digital
Расширение режима : CM (complete main)
Параметр Endianness формата : Big
Идентификатор кодека : A_AC3
Продолжительность : 2 ч. 16 м.
Вид битрейта : Постоянный
Битрейт : 192 Кбит/сек
Каналы : 2 канала
Расположение каналов : Front: L R
Частота : 48,0 КГц
Метод сжатия : С потерями
Размер потока : 187 Мбайт (1%)
Заголовок : Многоголосый (DVD), AC3 2.0, 192 kbps
Язык : Russian
Default : Нет
Forced : Нет
Аудио #7
Идентификатор : 8
Формат : AC-3
Формат/Информация : Audio Coding 3
Расширение режима : CM (complete main)
Параметр Endianness формата : Big
Идентификатор кодека : A_AC3
Продолжительность : 2 ч. 16 м.
Вид битрейта : Постоянный
Битрейт : 448 Кбит/сек
Каналы : 6 каналов
Расположение каналов : Front: L C R, Side: L R, LFE
Частота : 48,0 КГц
Метод сжатия : С потерями
Размер потока : 436 Мбайт (2%)
Заголовок : Живов, AC3 5.1, 448 kbps
Язык : Russian
Default : Нет
Forced : Нет
Аудио #8
Идентификатор : 9
Формат : AC-3
Формат/Информация : Audio Coding 3
Расширение режима : CM (complete main)
Параметр Endianness формата : Big
Идентификатор кодека : A_AC3
Продолжительность : 2 ч. 16 м.
Вид битрейта : Постоянный
Битрейт : 448 Кбит/сек
Каналы : 6 каналов
Расположение каналов : Front: L C R, Side: L R, LFE
Частота : 48,0 КГц
Метод сжатия : С потерями
Размер потока : 436 Мбайт (2%)
Заголовок : Завгородний, AC3 5.1, 448 kbps
Язык : Russian
Default : Нет
Forced : Нет
Аудио #9
Идентификатор : 10
Формат : AC-3
Формат/Информация : Audio Coding 3
Расширение режима : CM (complete main)
Параметр Endianness формата : Big
Идентификатор кодека : A_AC3
Продолжительность : 2 ч. 16 м.
Вид битрейта : Постоянный
Битрейт : 448 Кбит/сек
Каналы : 6 каналов
Расположение каналов : Front: L C R, Side: L R, LFE
Частота : 48,0 КГц
Метод сжатия : С потерями
Размер потока : 436 Мбайт (2%)
Заголовок : Багичев, AC3 5.1, 448 kbps
Язык : Russian
Default : Нет
Forced : Нет
Аудио #10
Идентификатор : 11
Формат : DTS
Формат/Информация : Digital Theater Systems
Режим : 16
Параметр Endianness формата : Big
Идентификатор кодека : A_DTS
Продолжительность : 2 ч. 16 м.
Вид битрейта : Постоянный
Битрейт : 1509 Кбит/сек
Каналы : 6 каналов
Расположение каналов : Front: L C R, Side: L R, LFE
Частота : 48,0 КГц
Битовая глубина : 24 бит
Метод сжатия : С потерями
Размер потока : 1,43 Гбайт (7%)
Заголовок : DTS 5.1, 1536 kbps
Язык : English
Default : Нет
Forced : Нет
Аудио #11
Идентификатор : 12
Формат : AC-3
Формат/Информация : Audio Coding 3
Профиль формата : Dolby Digital
Расширение режима : CM (complete main)
Параметр Endianness формата : Big
Идентификатор кодека : A_AC3
Продолжительность : 2 ч. 16 м.
Вид битрейта : Постоянный
Битрейт : 224 Кбит/сек
Каналы : 2 канала
Расположение каналов : Front: L R
Частота : 48,0 КГц
Метод сжатия : С потерями
Размер потока : 218 Мбайт (1%)
Заголовок : Commentary by Cameron Crowe and Nancy Wilson, AC3 2.0, 224 kbps
Язык : English
Default : Нет
Forced : Нет
Текст #1
Идентификатор : 13
Формат : UTF-8
Идентификатор кодека : S_TEXT/UTF8
Идентификатор кодека/Информация : UTF-8 Plain Text
Язык : Russian
Default : Нет
Forced : Нет
Текст #2
Идентификатор : 14
Формат : UTF-8
Идентификатор кодека : S_TEXT/UTF8
Идентификатор кодека/Информация : UTF-8 Plain Text
Язык : English
Default : Нет
Forced : Нет
Меню
00:00:00.000 : en:Everything In Its Right Place
00:06:24.300 : en:All The Right Friends
00:10:57.198 : en:Defending The Kingdom
00:15:10.701 : en:My Favorite Things
00:19:22.703 : en:Keep On Pushin'
00:22:46.865 : en:Directions
00:27:03.664 : en:Her Apartment
00:30:29.953 : en:Solsbury Hill
00:37:49.224 : en:Last Goodbye
00:43:36.113 : en:Lifestyle Mishap
00:51:42.766 : en:Helpful Unit
00:54:52.456 : en:This Is Me Smiling
00:59:03.331 : en:Rez
01:06:41.246 : en:Sweetness Follows
01:10:47.451 : en:The Splice
01:13:08.091 : en:Dig Deep David
01:20:13.350 : en:Fourth Time Around
01:24:01.328 : en:I Am Sofia
01:28:58.040 : en:Revolution Of The Mind
01:33:06.663 : en:Problems?
01:35:24.218 : en:Can We Still Be Friends
01:42:40.361 : en:Opening Act
01:45:59.686 : en:The Healing Room
01:52:34.038 : en:Good Vibrations
01:57:50.438 : en:Ladies And Gentlemen We Are Floating In Space
02:01:42.002 : en:Mortality As Home Entertainment
02:06:18.946 : en:I'll Find You Again
02:09:20.460 : en:Where Do I Begin
Скачать

Скачать торрент!

Как скачивать? · Что такое торрент? · Рейтинг и ограничения

Сайт не распространяет и не хранит электронные версии произведений, а лишь предоставляет доступ к создаваемому пользователями каталогу ссылок на торрент-файлы, которые содержат только списки хеш-сумм

[Профиль] [ЛС]
Показать сообщения:    
Ответить на тему

Текущее время: Сегодня 16:35

Часовой пояс: GMT + 4



Вы не можете начинать темы
Вы не можете отвечать на сообщения
Вы не можете редактировать свои сообщения
Вы не можете удалять свои сообщения
Вы не можете голосовать в опросах
Вы не можете прикреплять файлы к сообщениям
Вы не можете скачивать файлы