Люди Икс: Дни минувшего будущего / X-Men: Days of Future Past (Брайан Сингер / Bryan Singer) [2014, США, Великобритания, фантастика, боевик, триллер, приключения, BDRip 1080p] [The Rogue Cut] Dub + Sub Rus, Eng + Original Eng + Comm

Ответить на тему
 
Автор Сообщение

user ®

Стаж: 7 лет 7 месяцев

Сообщений: 20008

Пост Пост: #1 от 23-Июл-2015 20:18

[Цитировать]

Люди Икс: Дни минувшего будущего / X-Men: Days of Future Past / The Rogue Cut Страна: США, Великобритания
Студия: 20th Century Fox Film Corporation, Bad Hat Harry Productions, Marvel Entertainment, Marv Films, Dune
Жанр: фантастика, боевик, триллер, приключения
Год выпуска: 2014
Продолжительность: 02:28:45
Перевод: Профессиональный (дублированный) iTunes Russia
Cубтитры: русские (forced, full-voronine), английские (forced, full, SDH,Commetary)
Оригинальная аудиодорожка: английский
Режиссер: Брайан Сингер / Bryan Singer
В ролях: Хью Джекман, Джеймс МакЭвой, Майкл Фассбендер, Дженнифер Лоуренс, Холли Берри, Николас Холт, Анна Пэкуин, Эллен Пейдж, Питер Динклэйдж, Шон Эшмор
Описание: В будущем — лагерь для интернированных, где живут мутанты, лишившиеся свободы. В настоящем — непрекращающееся противостояние с Братством злых мутантов во главе с Магнето. В прошлом — возможность предотвратить господство Стражей, а значит, грядущую для мутантов изоляцию. Благодаря своим способностям путешествовать во времени, Китти Прайд, живущая в будущем, предупреждает нынешних мутантов о том, что их ждет. Но этого недостаточно, ведь из грядущего в настоящее явились и силы зла.

Тип релиза: BDRip 1080p [EbP]
Контейнер: MKV
Видео: AVC, 1920x800, 15600kbps, 23.976 fps
Аудио 1: Russian: 48 kHz, AC3, 3/2 (L,C,R,l,r) + LFE ch, ~384.00 kbps avg |iTunes Russia|
Аудио 2: English: 48 kHz, DTS, 3/2 (L,C,R,l,r) + LFE ch, ~1536.00 kbps avg |Original|
Аудио 3: English: 48 kHz, AC3, 2/0 (L,R) ch, ~224.00 kbps avg |Commetary by Bryan Singer and Simon Kinberg|
Аудио 4: English: 48 kHz, AC3, 2/0 (L,R) ch, ~224.00 kbps avg |Commetary by Bryan Singer and John Ottman|
Чаптеры: есть

x264 log
--crf 17.5 --level 4.1 --preset veryslow --bframes 9 --deblock -3:-3 --merange 16 --psy-rd 1.05:0.0 --aq-strength 0.8 --aq-mode 3 --no-mbtree --no-fast-pskip --no-dct-decimate --qcomp 0.7 --ipratio 1.3 --pbratio 1.15 --zones x23 --output "1080p.mkv" - 2> 1080p.log
x264 [info]: frame I:2005 Avg QP:14.95 size:295872
x264 [info]: frame P:47901 Avg QP:16.79 size:117360
x264 [info]: frame B:164097 Avg QP:17.33 size: 70453
x264 [info]: consecutive B-frames: 3.0% 3.7% 9.4% 13.3% 16.5% 44.8% 6.1% 1.1% 0.9% 1.2%
encoded 214003 frames, 6.16 fps, 15932.44 kb/s
NOTES
1. US Rogue as main video.It has two scenes with over zoom in & replaced with CHN source.
2. Take some scenes with better PQ from CHN source.
3. The US source has wrong color in scenes with Colors TV (same thing on EUR). On the other hand, CHN have colors TV changed color of flags from red to purple.Besides that,three scenes take from CHN change color of medal Vietnamese officers.Used Tweak(hue=-50, sat=1.1, startHue=0, endHue=100) to tuning back purple to red.
4. Four ranges was fixed dirtylines.
5. Script here.
6. More comparison here
7. Special thanks great notes form VietHD release.
Доп.информация
Расширенная версия длиннее театральной на 17 минут.
В своем интервью MTV режиссёр заявил, что раньше никогда не делал режиссерских или специальных версий своих фильмов, но всё бывает в первый раз. Rogue Cut будет отличаться от оригинальной версии фильма наличием удалённых сцен общей продолжительностью 17 минут - в основном это сцены с участием героини Роуг в исполнении актрисы Анны Пакуин. Помимо них будут добавлены сцены с Дженнифер Лоуренс и Ником Холтом, а также кое-какие эпизоды с новыми спецэффектами.
MediaInfo
General
Unique ID : 219032645855611755181010779080374479708 (0xA4C8273485934F65903A40CE7F4DEB5C)
Complete name : D:\рипы\X-Men.Days.of.Future.Past.2014.The.Rogue.Cut.Hybrid.1080p.BluRay.DTS-ES.x264-Talian-.mkv
Format : Matroska
Format version : Version 2
File size : 19.0 GiB
Duration : 2h 28mn
Overall bit rate : 18.3 Mbps
Movie name : X-Men: Days of Future Past-Talian-
Encoded date : UTC 2015-07-21 15:06:07
Writing application : mkvmerge v5.7.0 ('The Whirlwind') built on Jul 8 2012 20:08:51
Writing library : libebml v1.2.3 + libmatroska v1.3.0
Video
ID : 1
Format : AVC
Format/Info : Advanced Video Codec
Format profile : High@L4.1
Format settings, CABAC : Yes
Format settings, ReFrames : 5 frames
Codec ID : V_MPEG4/ISO/AVC
Duration : 2h 28mn
Bit rate : 15.6 Mbps
Width : 1 920 pixels
Height : 800 pixels
Display aspect ratio : 2.40:1
Frame rate : 23.976 fps
Color space : YUV
Chroma subsampling : 4:2:0
Bit depth : 8 bits
Scan type : Progressive
Bits/(Pixel*Frame) : 0.423
Stream size : 16.2 GiB (85%)
Title : EbP
Writing library : x264 core 146 r2538 121396c
Encoding settings : cabac=1 / ref=5 / deblock=1:-3:-3 / analyse=0x3:0x133 / me=umh / subme=10 / psy=1 / psy_rd=1.05:0.00 / mixed_ref=1 / me_range=16 / chroma_me=1 / trellis=2 / 8x8dct=1 / cqm=0 / deadzone=21,11 / fast_pskip=0 / chroma_qp_offset=-2 / threads=12 / lookahead_threads=2 / sliced_threads=0 / nr=0 / decimate=0 / interlaced=0 / bluray_compat=0 / constrained_intra=0 / bframes=9 / b_pyramid=2 / b_adapt=2 / b_bias=0 / direct=3 / weightb=1 / open_gop=0 / weightp=2 / keyint=250 / keyint_min=23 / scenecut=40 / intra_refresh=0 / rc=crf / mbtree=0 / crf=17.5 / qcomp=0.70 / qpmin=0 / qpmax=69 / qpstep=4 / ip_ratio=1.30 / pb_ratio=1.15 / aq=3:0.80 / zones=8593,8776,crf=16.5/8937,9162,crf=16.5/9484,9635,crf=17/11146,11246,crf=17/11273,11324,crf=16.5/11383,11438,crf=16.5/36288,42157,crf=17/79547,81253,crf=17/117729,118721,crf=16.5/131888,131958,crf=16.5/132086,132152,crf=16.5/132652,132724,crf=16.5/132828,133053,crf=16.5/133325,133410,crf=16.5/133526,133642,crf=16.5/133691,133738,crf=16.5/133856,133909,crf=16.5/134097,134175,crf=16.5/174325,174765,crf=17/174914,174954,crf=17/182573,182809,crf=16.5/182881,183238,crf=16.5/200435,203157,crf=23/203573,214002,crf=23
Language : English
Default : Yes
Forced : No
Audio #1
ID : 2
Format : AC-3
Format/Info : Audio Coding 3
Mode extension : CM (complete main)
Format settings, Endianness : Big
Codec ID : A_AC3
Duration : 2h 28mn
Bit rate mode : Constant
Bit rate : 384 Kbps
Channel(s) : 6 channels
Channel positions : Front: L C R, Side: L R, LFE
Sampling rate : 48.0 KHz
Bit depth : 16 bits
Compression mode : Lossy
Stream size : 409 MiB (2%)
Title : DUB-iTunes
Language : Russian
Default : Yes
Forced : No
Audio #2
ID : 3
Format : DTS
Format/Info : Digital Theater Systems
Format profile : ES
Codec ID : A_DTS
Duration : 2h 28mn
Bit rate mode : Constant
Bit rate : 1 510 Kbps
Channel(s) : 6 channels
Channel positions : Front: L C R, Side: L R, LFE
Sampling rate : 48.0 KHz
Bit depth : 24 bits
Compression mode : Lossy
Stream size : 1.57 GiB (8%)
Title : Original
Language : English
Default : No
Forced : No
Audio #3
ID : 4
Format : AC-3
Format/Info : Audio Coding 3
Mode extension : CM (complete main)
Format settings, Endianness : Big
Codec ID : A_AC3
Duration : 2h 28mn
Bit rate mode : Constant
Bit rate : 224 Kbps
Channel(s) : 2 channels
Channel positions : Front: L R
Sampling rate : 48.0 KHz
Bit depth : 16 bits
Compression mode : Lossy
Stream size : 238 MiB (1%)
Title : (Commetary by Bryan Singer and Simon Kinberg)
Language : English
Default : No
Forced : No
Audio #4
ID : 5
Format : AC-3
Format/Info : Audio Coding 3
Mode extension : CM (complete main)
Format settings, Endianness : Big
Codec ID : A_AC3
Duration : 2h 28mn
Bit rate mode : Constant
Bit rate : 224 Kbps
Channel(s) : 2 channels
Channel positions : Front: L R
Sampling rate : 48.0 KHz
Bit depth : 16 bits
Compression mode : Lossy
Stream size : 238 MiB (1%)
Title : (Commetary by Bryan Singer and John Ottman)
Language : English
Default : No
Forced : No
Text #1
ID : 6
Format : UTF-8
Codec ID : S_TEXT/UTF8
Codec ID/Info : UTF-8 Plain Text
Title : Sub-forced
Language : Russian
Default : Yes
Forced : No
Text #2
ID : 7
Format : UTF-8
Codec ID : S_TEXT/UTF8
Codec ID/Info : UTF-8 Plain Text
Title : Sub-full-voronine
Language : Russian
Default : No
Forced : No
Text #3
ID : 8
Format : UTF-8
Codec ID : S_TEXT/UTF8
Codec ID/Info : UTF-8 Plain Text
Title : Sub-force
Language : English
Default : No
Forced : No
Text #4
ID : 9
Format : UTF-8
Codec ID : S_TEXT/UTF8
Codec ID/Info : UTF-8 Plain Text
Title : Sub-full
Language : English
Default : No
Forced : No
Text #5
ID : 10
Format : UTF-8
Codec ID : S_TEXT/UTF8
Codec ID/Info : UTF-8 Plain Text
Title : Sub-SDH
Language : English
Default : No
Forced : No
Text #6
ID : 11
Format : UTF-8
Codec ID : S_TEXT/UTF8
Codec ID/Info : UTF-8 Plain Text
Title : Sub-comm1
Language : English
Default : No
Forced : No
Text #7
ID : 12
Format : UTF-8
Codec ID : S_TEXT/UTF8
Codec ID/Info : UTF-8 Plain Text
Title : Sub-comm2
Language : English
Default : No
Forced : No
Menu
00:00:00.000 : en:00:00:00.000
00:03:33.338 : en:00:03:33.338
00:08:04.734 : en:00:08:04.734
00:10:34.217 : en:00:10:34.217
00:15:11.410 : en:00:15:11.410
00:18:44.248 : en:00:18:44.248
00:22:43.529 : en:00:22:43.529
00:24:38.769 : en:00:24:38.769
00:29:05.619 : en:00:29:05.619
00:33:03.440 : en:00:33:03.440
00:37:11.896 : en:00:37:11.896
00:38:49.827 : en:00:38:49.827
00:41:06.923 : en:00:41:06.923
00:43:50.336 : en:00:43:50.336
00:50:05.377 : en:00:50:05.377
00:52:07.082 : en:00:52:07.082
00:55:11.391 : en:00:55:11.391
00:57:56.348 : en:00:57:56.348
01:01:04.661 : en:01:01:04.661
01:04:01.421 : en:01:04:01.421
01:06:39.829 : en:01:06:39.829
01:10:22.802 : en:01:10:22.802
01:13:00.459 : en:01:13:00.459
01:16:28.334 : en:01:16:28.334
01:18:48.724 : en:01:18:48.724
01:20:44.590 : en:01:20:44.590
01:22:46.962 : en:01:22:46.962
01:28:07.574 : en:01:28:07.574
01:31:19.057 : en:01:31:19.057
01:33:50.958 : en:01:33:50.958
01:39:22.373 : en:01:39:22.373
01:42:10.291 : en:01:42:10.291
01:44:32.016 : en:01:44:32.016
01:49:13.547 : en:01:49:13.547
01:51:00.862 : en:01:51:00.862
01:54:54.304 : en:01:54:54.304
01:59:15.940 : en:01:59:15.940
02:02:13.743 : en:02:02:13.743
02:04:30.504 : en:02:04:30.504
02:08:16.230 : en:02:08:16.230
02:13:27.583 : en:02:13:27.583
02:16:57.250 : en:02:16:57.250
02:19:19.809 : en:02:19:19.809
02:27:34.011 : en:02:27:34.011
Сравнение исходников
CHN .vs US Rogue .vs Hybrid .vs EbPUS over zoom in CHN .vs US Rogue .vs Hybrid .vs EbPUS Rogue better as main video (especially in dark scenes)
CHN .vs US Rogue .vs Hybrid .vs EbPCHN has some scenes with better PQ
CHN .vs US Rogue .vs Hybrid .vs EbPFix color of medal Vietnamese officers
CHN .vs US Rogue .vs Hybrid .vs EbPFix color of BW TV CHN .vs US Rogue .vs Hybrid .vs EbPFix dirtylines
Скриншоты
Hybrid .vs EbP


Скачать

Скачать торрент!

Как скачивать? · Что такое торрент? · Рейтинг и ограничения

Сайт не распространяет и не хранит электронные версии произведений, а лишь предоставляет доступ к создаваемому пользователями каталогу ссылок на торрент-файлы, которые содержат только списки хеш-сумм

[Профиль] [ЛС]
Показать сообщения:    
Ответить на тему

Текущее время: Сегодня 04:50

Часовой пояс: GMT + 4



Вы не можете начинать темы
Вы не можете отвечать на сообщения
Вы не можете редактировать свои сообщения
Вы не можете удалять свои сообщения
Вы не можете голосовать в опросах
Вы не можете прикреплять файлы к сообщениям
Вы не можете скачивать файлы