Кто такой Гарри Крамб? / Who\'s Harry Crumb? (Пол Флаэрти / Paul Flaherty) [1989, США, Канада, комедия, криминал, детектив, WEB-DL 1080p] MVO (1 канал) + DVO (НТВ+) + DVO + AVO (Алексей Михалёв) + Sub Eng + Original Eng

Ответить на тему
 
Автор Сообщение

user ®

Стаж: 7 лет 7 месяцев

Сообщений: 20008

Пост Пост: #1 от 23-Июл-2015 20:18

[Цитировать]

23.07.15 торрент перезалит, устранен рассинхрон в переводах: 1 канала, НТВ+.-Кто такой Гарри Крамб? / Who's Harry Crumb?
Страна: США, Канада
Жанр: комедия, криминал, детектив
Год выпуска: 1989
Продолжительность: 01:29:49
Перевод 1: Профессиональный (многоголосый закадровый) 1 канал
Перевод 2: Профессиональный (двухголосый закадровый) НТВ+
Перевод 3: Профессиональный (двухголосый закадровый)
Перевод 4: Авторский (одноголосый закадровый) Алексей Михалёв
Cубтитры: английские
Оригинальная аудиодорожка: английский
Режиссер: Пол Флаэрти / Paul Flaherty
В ролях: Джон Кэнди, Джеффри Джонс, Энни Поттс, Тим Томерсон, Бэрри Корбин, Шоуни Смит, Вэлри Бромфилд, Даг Стеклер, Рени Коулмэн, Уэсли Манн...
Описание: Похищена дочь миллионера Пи Джея Даунинга. «Безутешный» отец обращается в детективное агентство «Крамб и Крамб». Руководитель сыскного бюро Элиот Драйзен поручает расследование этого дела добродушному и непутевому детективу Гарри Крамбу.
Он абсолютно уверен, что Гарри завалит это получение, как и все остальные. А это как раз то, что нужно. Но Гарри, похоже, решает доказать, что правила не бывает без исключений…
Доп. информация:
Переводы: 1 канала, НТВ+ с раздачи smit009. Были пересинхронизированы из-за наростающего рассинхрона.
Перевод Михалёва с раздачи anton966, двухголосый перевод с DVD.
Синхронизация переводов - Dreven.
5 канальный звук с DVD дутый, голоса во всех каналах.
Сэмпл: http://multi-up.com/1059784
Тип релиза: WEB-DL 1080p
Контейнер: MKV
Видео: 1916x1076 (16:9), 23.976 fps, AVC, ~4873 Kbps, 0.099 bits/pixel
Аудио 1: Russian, 48.0 KHz, AC3, 2 ch, 192 Kbps - 1 канал
Аудио 2: Russian, 48.0 KHz, AC3, 2 ch, 192 Kbps - НТВ+
Аудио 3: Russian, 48.0 KHz, AC3, 2 ch, 192 Kbps
Аудио 4: Russian, 48.0 KHz, AC3, 2 ch, 192 Kbps - Алексей Михалёв
Аудио 5: English, 48.0 KHz, AC3, 2 ch, 192 Kbps

Сравнение
[url=http://***/forum/viewtopic.php?t=3225754]http://***/forum/viewtopic.php?t=3225754[/url]
HDTV | WEB-DL



-[url=http://***/forum/viewtopic.php?t=2908988]http://***/forum/viewtopic.php?t=2908988[/url]
DVD | WEB-DL


MediaInfo
General
Unique ID : 214568887551928583303233068489253793528 (0xA16C76EDDD1A0013A3472F82340B2EF8)
Complete name : D:\torrent\Мои Раздачи\Who's Harry Crumb. WEB-DL 1080p (1).mkv
Format : Matroska
Format version : Version 4 / Version 2
File size : 3.73 GiB
Duration : 1h 29mn
Overall bit rate : 5 952 Kbps
Encoded date : UTC 2015-07-22 19:14:04
Writing application : mkvmerge v8.1.0 ('Psychedelic Postcard') 64bit
Writing library : libebml v1.3.1 + libmatroska v1.4.2
DURATION : 01:29:48.832000000
NUMBER_OF_FRAMES : 168401
NUMBER_OF_BYTES : 129331968
_STATISTICS_WRITING_APP : mkvmerge v8.1.0 ('Psychedelic Postcard') 64bit
_STATISTICS_WRITING_DATE_UT : 2015-07-22 19:14:04
_STATISTICS_TAGS : BPS DURATION NUMBER_OF_FRAMES NUMBER_OF_BYTES
Video
ID : 1
Format : AVC
Format/Info : Advanced Video Codec
Format profile : High@L4
Format settings, CABAC : Yes
Format settings, ReFrames : 4 frames
Codec ID : V_MPEG4/ISO/AVC
Duration : 1h 29mn
Bit rate : 4 873 Kbps
Width : 1 916 pixels
Height : 1 076 pixels
Display aspect ratio : 16:9
Frame rate mode : Constant
Frame rate : 23.976 fps
Color space : YUV
Chroma subsampling : 4:2:0
Bit depth : 8 bits
Scan type : Progressive
Bits/(Pixel*Frame) : 0.099
Stream size : 3.06 GiB (82%)
Language : English
Default : Yes
Forced : No
Color range : Limited
Color primaries : BT.709
Transfer characteristics : BT.709
Matrix coefficients : BT.709
Audio #1
ID : 2
Format : AC-3
Format/Info : Audio Coding 3
Mode extension : CM (complete main)
Format settings, Endianness : Big
Codec ID : A_AC3
Duration : 1h 29mn
Bit rate mode : Constant
Bit rate : 192 Kbps
Channel(s) : 2 channels
Channel positions : Front: L R
Sampling rate : 48.0 KHz
Compression mode : Lossy
Stream size : 123 MiB (3%)
Title : 1 канал
Language : Russian
Default : Yes
Forced : No
Audio #2
ID : 3
Format : AC-3
Format/Info : Audio Coding 3
Mode extension : CM (complete main)
Format settings, Endianness : Big
Codec ID : A_AC3
Duration : 1h 29mn
Bit rate mode : Constant
Bit rate : 192 Kbps
Channel(s) : 2 channels
Channel positions : Front: L R
Sampling rate : 48.0 KHz
Compression mode : Lossy
Stream size : 123 MiB (3%)
Title : НТВ+
Language : Russian
Default : No
Forced : No
Audio #3
ID : 4
Format : AC-3
Format/Info : Audio Coding 3
Mode extension : CM (complete main)
Format settings, Endianness : Big
Codec ID : A_AC3
Duration : 1h 29mn
Bit rate mode : Constant
Bit rate : 192 Kbps
Channel(s) : 2 channels
Channel positions : Front: L R
Sampling rate : 48.0 KHz
Compression mode : Lossy
Stream size : 123 MiB (3%)
Language : Russian
Default : No
Forced : No
Audio #4
ID : 5
Format : AC-3
Format/Info : Audio Coding 3
Mode extension : CM (complete main)
Format settings, Endianness : Big
Codec ID : A_AC3
Duration : 1h 29mn
Bit rate mode : Constant
Bit rate : 192 Kbps
Channel(s) : 2 channels
Channel positions : Front: L R
Sampling rate : 48.0 KHz
Compression mode : Lossy
Stream size : 123 MiB (3%)
Title : Алексей Михалёв
Language : Russian
Default : No
Forced : No
Audio #5
ID : 6
Format : AC-3
Format/Info : Audio Coding 3
Mode extension : CM (complete main)
Format settings, Endianness : Big
Codec ID : A_AC3
Duration : 1h 29mn
Bit rate mode : Constant
Bit rate : 192 Kbps
Channel(s) : 2 channels
Channel positions : Front: L R
Sampling rate : 48.0 KHz
Compression mode : Lossy
Stream size : 123 MiB (3%)
Language : English
Default : No
Forced : No
Text
ID : 7
Format : UTF-8
Codec ID : S_TEXT/UTF8
Codec ID/Info : UTF-8 Plain Text
Language : English
Default : No
Forced : No
Menu
00:00:00.000 : en:1
00:05:29.000 : en:2
00:08:41.000 : en:3
00:16:03.000 : en:4
00:21:54.000 : en:5
00:25:51.000 : en:6
00:28:57.000 : en:7
00:35:45.000 : en:8
00:39:48.000 : en:9
00:47:27.000 : en:10
00:54:13.000 : en:11
01:00:02.000 : en:12
01:06:12.000 : en:13
01:12:42.000 : en:14
01:18:52.000 : en:15
01:24:05.000 : en:16
Скриншоты
Скачать

Скачать торрент!

Как скачивать? · Что такое торрент? · Рейтинг и ограничения

Сайт не распространяет и не хранит электронные версии произведений, а лишь предоставляет доступ к создаваемому пользователями каталогу ссылок на торрент-файлы, которые содержат только списки хеш-сумм

[Профиль] [ЛС]
Показать сообщения:    
Ответить на тему

Текущее время: Сегодня 20:34

Часовой пояс: GMT + 4



Вы не можете начинать темы
Вы не можете отвечать на сообщения
Вы не можете редактировать свои сообщения
Вы не можете удалять свои сообщения
Вы не можете голосовать в опросах
Вы не можете прикреплять файлы к сообщениям
Вы не можете скачивать файлы