В одиночку / Одиночка / En solitaire (Кристоф Оффенштейн / Christophe Offenstein) [2013, Франция, драма, приключения, BDRip 720p] Sub Rus, Eng + Original Fre

Ответить на тему
 
Автор Сообщение

user ®

Стаж: 7 лет 7 месяцев

Сообщений: 20008

Пост Пост: #1 от 22-Июл-2015 22:39

[Цитировать]

В одиночку / En solitaire
Страна: Франция
Жанр: драма, приключения
Год выпуска: 2013
Продолжительность: 1:40:45
Перевод: Субтитры
Cубтитры: русские, английские
Оригинальная аудиодорожка: французский
Режиссер: Кристоф Оффенштейн/Christophe Offenstein
В ролях: Франсуа Клюзе, Сами Сегир, Гийом Кане, Карин Ванасс, Вирджиния Эфира, Жан-Поль Рув и др.
Описание: Янн Кермадек спонтанно отправляется в кругосветное путешествие на парусной регате "Венди Глоб" в одиночку, вместо попавшего в аварию напарника. Его дела идут неплохо - яхтсмен успешно преодолевает трудности одиночного плаванья и имеет все шансы стать победителем гонок. Но неожиданный пассажир, шестнадцатилетний Мано, тайно прокравшийся на лодку в надежде добраться до Франции, ставит под угрозу дальнейшее участие Янна в соревнованиях. Как поступит главный герой в этой непростой ситуации? Об этом, собственно, фильм.
Доп. информация: перевод субтитров с английского - мой.
Сэмпл: http://multi-up.com/1059563
Качество видео: BDRip
Формат видео: MKV
Видео: V_MPEG4/ISO/AVC, 1 280x544, 2.35:1, x264 core, 4 577 Kbps, 0.274Bits/Pixel
Аудио: 48.0 KHz, DTS, 1 510 Kbps, Front: L C R, Surround: L R, LFE
Формат субтитров: softsub (SRT)
MediaInfo
d:\torrents\En.solitaire.2013.french.720p.bluray.x264-rough\ En.solitaire.2013.french.720p.bluray.x264-rough .mkv
General
Complete name : d:\torrents\En.solitaire.2013.french.720p.bluray.x264-rough\ En.solitaire.2013.french.720p.bluray.x264-rough .mkv
Format : Matroska
File size : 4.37 GiB
Duration : 1h 40mn
Overall bit rate : 6 207 Kbps
Encoded date : UTC 2015-07-17 19:47:16
Writing application : mkvmerge v4.2.0 ('No Talking') сборка от Jul 28 2010 18:38:23
Writing library : libebml v1.0.0 + libmatroska v1.0.0
Video #1
ID : 1
Format : AVC
Format/Info : Advanced Video Codec
Format profile : High@L3.1
Format settings, CABAC : Yes
Format settings, ReFrames : 5 frames
Muxing mode : Container profile=Unknown@3.1
Codec ID : V_MPEG4/ISO/AVC
Duration : 1h 40mn
Bit rate : 4 574 Kbps
Nominal bit rate : 4 700 Kbps
Width : 1 280 pixels
Height : 544 pixels
Display aspect ratio : 2.35:1
Frame rate : 23.976 fps
Resolution : 24 bits
Colorimetry : 4:2:0
Scan type : Progressive
Bits/(Pixel*Frame) : 0.274
Stream size : 3.22 GiB (74%)
Writing library : x264 core 142 r2389 956c8d8
Encoding settings : cabac=1 / ref=5 / deblock=1:0:0 / analyse=0x3:0x133 / me=umh / subme=7 / psy=1 / psy_rd=1.00:0.00 / mixed_ref=1 / me_range=16 / chroma_me=1 / trellis=1 / 8x8dct=1 / cqm=0 / deadzone=21,11 / fast_pskip=0 / chroma_qp_offset=-2 / threads=18 / lookahead_threads=3 / sliced_threads=0 / nr=0 / decimate=1 / interlaced=0 / bluray_compat=0 / constrained_intra=0 / bframes=3 / b_pyramid=2 / b_adapt=2 / b_bias=0 / direct=3 / weightb=1 / open_gop=0 / weightp=2 / keyint=250 / keyint_min=23 / scenecut=40 / intra_refresh=0 / rc_lookahead=50 / rc=2pass / mbtree=1 / bitrate=4700 / ratetol=1.0 / qcomp=0.60 / qpmin=0 / qpmax=69 / qpstep=4 / cplxblur=20.0 / qblur=0.5 / ip_ratio=1.40 / aq=1:1.00
Audio #3
ID : 3
Format : DTS
Format/Info : Digital Theater Systems
Codec ID : A_DTS
Duration : 1h 40mn
Bit rate mode : Constant
Bit rate : 1 510 Kbps
Channel(s) : 6 channels
Channel positions : Front: L C R, Surround: L R, LFE
Sampling rate : 48.0 KHz
Resolution : 24 bits
Video delay : 11ms
Stream size : 1.06 GiB (24%)
Title : DTS 5.1
Language : French
Text #2
ID : 2
Format : UTF-8
Codec ID : S_TEXT/UTF8
Codec ID/Info : UTF-8 Plain Text
Title : cубтитры
Language : Russian
Text #4
ID : 4
Format : UTF-8
Codec ID : S_TEXT/UTF8
Codec ID/Info : UTF-8 Plain Text
Title : Forced
Language : French
Text #5
ID : 5
Format : UTF-8
Codec ID : S_TEXT/UTF8
Codec ID/Info : UTF-8 Plain Text
Title : субтитры
Скриншот c названием фильма Скриншоты
Скачать

Скачать торрент!

Как скачивать? · Что такое торрент? · Рейтинг и ограничения

Сайт не распространяет и не хранит электронные версии произведений, а лишь предоставляет доступ к создаваемому пользователями каталогу ссылок на торрент-файлы, которые содержат только списки хеш-сумм

[Профиль] [ЛС]
Показать сообщения:    
Ответить на тему

Текущее время: Сегодня 07:59

Часовой пояс: GMT + 4



Вы не можете начинать темы
Вы не можете отвечать на сообщения
Вы не можете редактировать свои сообщения
Вы не можете удалять свои сообщения
Вы не можете голосовать в опросах
Вы не можете прикреплять файлы к сообщениям
Вы не можете скачивать файлы