Ты стреляешь, я снимаю / Maai hung paak yan / You Shoot, I Shoot (Хо-Чунг Панг / Ho-Cheung Pang) [2001, Гонконг, боевик, комедия, криминал, HDRip] AVO (Кузнецов)

Ответить на тему
 
Автор Сообщение

user ®

Стаж: 13 лет

Сообщений: 15071

Пост Пост: #1 от 22-Июл-2015 10:15

[Цитировать]

Ты стреляешь, я снимаю / Maai hung paak yan / You Shoot, I Shoot
Страна: Гонконг
Жанр: боевик, комедия
Год выпуска: 2001
Продолжительность:01:38:52
Перевод: Авторский (одноголосый закадровый) [Кузнецов]
Оригинальная аудиодорожка: нет
Cубтитры: нет
Режиссер:Хо-Чунг Панг / Ho-Cheung Pang
В ролях:Эрик Кот, Тат-Минг Чунг, Кеннет Би, Фай-хунг Чан, Уай-Ман Чан, Джо Чэн, Мэтт Чоу, Одри Фэнг
Описание:Барт — наемный убийца, дела у которого идут не лучшим образом. На убийства «мертвый сезон», и он соглашается работать по заказу богатой местной знаменитости, заказавшей убийство ее случайного знакомого, заснявшего их секс и продавшего пленку дистрибьюторам. При этом Барт должен заснять процесс убийства. Барт хорошо нажимает на курок, но с камерой у него не ладится, и поэтому он берет себе напарника — начинающего режиссера, фанатеющего от Мартина Скорсезе.
Релиз:

Качество: НDRip
Контейнер: AVI
Видео: 688x384 (1.79:1), 24 fps, XviD build 50 ~915 kbps avg, 0.14 bit/pixel
Аудио: 48 kHz, MPEG Layer 3, 2 ch, ~128.00 kbps avg

MI
Общее
Полное имя : D:\Мои рипы\Ты стреляешь, я снимаю_HDRip_744_Некул.avi
Формат : AVI
Формат/Информация : Audio Video Interleave
Размер файла : 745 Мбайт
Продолжительность : 1 ч. 38 м.
Общий поток : 1053 Кбит/сек
Программа кодирования : VirtualDubMod 1.5.10.3 | www.virtualdub-fr.org || (build 2550/release)
Библиотека кодирования : VirtualDubMod build 2550/release
Видео
Идентификатор : 0
Формат : MPEG-4 Visual
Профиль формата : Advanced Simple@L5
Параметр BVOP формата : 2
Параметр QPel формата : Нет
Параметр GMC формата : Без точки перехода
Параметр матрицы формата : Default (MPEG)
Идентификатор кодека : XVID
Идентификатор кодека/Подсказка : XviD
Продолжительность : 1 ч. 38 м.
Битрейт : 916 Кбит/сек
Ширина : 688 пикселей
Высота : 384 пикселя
Соотношение сторон : 16:9
Частота кадров : 24,000 кадра/сек
Цветовое пространство : YUV
Субдискретизация насыщенности : 4:2:0
Битовая глубина : 8 бит
Тип развёртки : Прогрессивная
Метод сжатия : С потерями
Бит/(Пиксели*Кадры) : 0.144
Размер потока : 648 Мбайт (87%)
Библиотека кодирования : XviD 1.2.1 (UTC 2008-12-04)
Аудио
Идентификатор : 1
Формат : MPEG Audio
Версия формата : Version 1
Профиль формата : Layer 3
Идентификатор кодека : 55
Идентификатор кодека/Подсказка : MP3
Продолжительность : 1 ч. 38 м.
Вид битрейта : Постоянный
Битрейт : 128 Кбит/сек
Каналы : 2 канала
Частота : 48,0 КГц
Метод сжатия : С потерями
Размер потока : 90,5 Мбайт (12%)
Выравнивание : Соединение по промежуткам
Продолжительность промежутка : 42 мс. (1,00 видеокадр)
Время предзагрузки промежутка : 504 мс.
Библиотека кодирования : LAME3.99r
Настройки программы : -m s -V 4 -q 2 -lowpass 17 -b 128
Скриншоты
Скачать

Скачать торрент! Ты стреляешь, я снимаю / Maai hung paak yan / You Shoot, I Shoot (Хо-Чунг Панг / Ho-Cheung Pang) [2001, Гонконг, боевик, комедия, криминал, HDRip] AVO (Кузнецов)

Как скачивать? · Что такое торрент? · Рейтинг и ограничения

Сайт не распространяет и не хранит электронные версии произведений, а лишь предоставляет доступ к создаваемому пользователями каталогу ссылок на торрент-файлы, которые содержат только списки хеш-сумм

[Профиль] [ЛС]
Показать сообщения:    
Ответить на тему

Текущее время: Сегодня 21:14

Часовой пояс: GMT + 4



Вы не можете начинать темы
Вы не можете отвечать на сообщения
Вы не можете редактировать свои сообщения
Вы не можете удалять свои сообщения
Вы не можете голосовать в опросах
Вы не можете прикреплять файлы к сообщениям
Вы не можете скачивать файлы