Колдовская доска / Заклятие смерти / Ouija Board / Bunshinsaba (Ан Бён-ки / Byeong-ki Ahn) [2004, Южная Корея, Ужасы, драма, DVDRip-AVC] DVO (DeadSno & Den904)

Ответить на тему
 
Автор Сообщение

user ®

Стаж: 13 лет

Сообщений: 15071

Пост Пост: #1 от 22-Июл-2015 10:15

[Цитировать]

Колдовская доска / Заклятие смерти / Ouija Board /Bunshinsaba
Страна: Южная Корея
Жанр: Ужасы, драма
Год выпуска: 2004
Продолжительность: 01:32:25
Перевод: Любительский (двухголосый закадровый) DeadSno & Den904 по переводу sergik1
Cубтитры: нет
Оригинальная аудиодорожка: нет
Режиссер: Ан Бён-ки / Byeong-ki Ahn
В ролях: Ким Гю Ри, Ли Се Ын, Ю-ри Ли, Чхве Сон Мин, Цой Чжон Юн, Ю-чжин Им, Чон-хва Кенг, Сон-ын Так
Описание: Старшеклассницы прибегают к помощи темной магии для того, чтобы разобраться со своими проблемами. Но не все проходит так гладко… Во время магического обряда в одну из старшеклассниц вселяется дух девушки, учившейся в этой же школе много лет назад. Её, вместе с матерью, сожгли по обвинению в колдовстве. Оживший дух, преисполненный жаждой мести, начинает кровавую охоту на виновных в ее смерти…
Сэмпл: http://multi-up.com/1059477
Качество видео: DVDRip-AVC
Формат видео: MKV
Видео: AVC, 720x400, 1668 kbps, 29.970 fps
Аудио: AC-3, 448 kbps, 48 kHZ, 6 ch
MediaInfo
Format: Matroska
Format version: Version 4 / Version 2
File size: 1.36 GiB
Duration: 1h 32mn
Overall bit rate: 2 111 Kbps
Encoded date: UTC 2015-07-20 14:03:13
Writing application: mkvmerge v6.2.0 ('Promised Land') built on Apr 28 2013 12:22:01
Writing library: libebml v1.3.0 + libmatroska v1.4.0
Format: AVC
Format/Info: Advanced Video Codec
Format profile: Main@L3.0
Format settings, CABAC: Yes
Format settings, ReFrames: 4 frames
Codec ID: V_MPEG4/ISO/AVC
Duration: 1h 32mn
Bit rate: 1 668 Kbps
Width: 720 pixels
Height: 400 pixels
Display aspect ratio: 16:9
Frame rate mode: Constant
Frame rate: 29.970 fps
Color space: YUV
Chroma subsampling: 4:2:0
Bit depth: 8 bits
Scan type: Progressive
Bits/(Pixel*Frame): 0.193
Stream size: 1.05 GiB (77%)
Writing library: x264 core 112
Encoding settings: cabac=1 / ref=2 / deblock=1:0:0 / analyse=0x1:0x111 / me=hex / subme=6 / psy=1 / psy_rd=1.00:0.00 / mixed_ref=0 / me_range=16 / chroma_me=1 / trellis=0 / 8x8dct=0 / cqm=0 / deadzone=21,11 / fast_pskip=1 / chroma_qp_offset=-2 / threads=3 / sliced_threads=0 / nr=0 / decimate=1 / interlaced=0 / constrained_intra=0 / bframes=2 / b_pyramid=2 / b_adapt=1 / b_bias=0 / direct=1 / weightb=0 / open_gop=0 / weightp=2 / keyint=240 / keyint_min=23 / scenecut=40 / intra_refresh=0 / rc_lookahead=40 / rc=abr / mbtree=1 / bitrate=1668 / ratetol=1.0 / qcomp=0.60 / qpmin=3 / qpmax=51 / qpstep=4 / ip_ratio=1.40 / aq=1:1.00
Language: English
Default: Yes
Forced: No
Color primaries: BT.601 NTSC
Transfer characteristics: BT.709
Matrix coefficients: BT.601
Color range: Limited
Format: AC-3
Format/Info: Audio Coding 3
Mode extension: CM (complete main)
Format settings, Endianness: Big
Codec ID: A_AC3
Duration: 1h 32mn
Bit rate mode: Constant
Bit rate: 448 Kbps
Channel(s): 6 channels
Channel positions: Front: L C R, Side: L R, LFE
Sampling rate: 48.0 KHz
Bit depth: 16 bits
Compression mode: Lossy
Stream size: 296 MiB (21%)
Default: Yes
Forced: No
Скриншот c названием фильма Скриншоты
Скачать

Скачать торрент! Колдовская доска / Заклятие смерти / Ouija Board / Bunshinsaba (Ан Бён-ки / Byeong-ki Ahn) [2004, Южная Корея, Ужасы, драма, DVDRip-AVC] DVO (DeadSno & Den904)

Как скачивать? · Что такое торрент? · Рейтинг и ограничения

Сайт не распространяет и не хранит электронные версии произведений, а лишь предоставляет доступ к создаваемому пользователями каталогу ссылок на торрент-файлы, которые содержат только списки хеш-сумм

[Профиль] [ЛС]
Показать сообщения:    
Ответить на тему

Текущее время: Сегодня 10:33

Часовой пояс: GMT + 4



Вы не можете начинать темы
Вы не можете отвечать на сообщения
Вы не можете редактировать свои сообщения
Вы не можете удалять свои сообщения
Вы не можете голосовать в опросах
Вы не можете прикреплять файлы к сообщениям
Вы не можете скачивать файлы