Разыскиваются в Малибу / Malibu\'s Most Wanted (Джон Уайтселл / John Whitesell) [2003, США, комедия, криминал, WEB-DL 1080p] DVO + AVO (Е. Рудой) + Sub Rus + Original Eng

Ответить на тему
 
Автор Сообщение

user ®

Стаж: 7 лет 7 месяцев

Сообщений: 20008

Пост Пост: #1 от 21-Июл-2015 21:54

[Цитировать]

Разыскиваются в Малибу / Malibu's Most Wanted- Страна: США
Жанр: комедия, криминал
Год выпуска: 2003
Продолжительность: 01:26:12
Перевод 1: Профессиональный (двухголосый закадровый)
Перевод 2: Авторский (одноголосый закадровый) Е. Рудой
Cубтитры: русские
Оригинальная аудиодорожка: английский-Режиссер: Джон Уайтселл / John Whitesell
В ролях: Джейми Кеннеди, Тэй Диггз, Энтони Андерсон, Реджина Холл, Блэр Андервуд, Дэмиен Уайанс, Райан О`Нил, Бо Дерек, Джефри Тэмбор, Кэл Пенн, Ник Свардсон, Келли Мартин, Грег Гранберг, Терри Крюс-Описание: Не стоит ненавидеть его за то, кем он является. Или кем он не является. Все, чем хочет заниматься Брэд — или Би-рэд — разъезжать со своими дружками по Малибу и вести себя, как самый крутой черный рэппер в округе.
Но все вокруг знают, что паренек, лихо читающий рэп, родом из респектабельного квартала Малибу. И отец Брэда, Билл Глакман, кандидат в губернаторы, серьезно боится, что увлечение Би-рэда «черной» культурой может разнести в пух и прах его предвыборную кампанию.- -Тип релиза: WEB-DL 1080p
Контейнер: MKV
Видео: AVC, 1920x796, 4318 Kbps, 23.976 fps, 0.118 bpf
Аудио 1: AC3, 384 Kbps, 5.1 ch, 48000 Hz - DVO
Аудио 2: AC3, 384 Kbps, 5.1 ch, 48000 Hz - AVO
Аудио 3: AC3, 384 Kbps, 5.1 ch, 48000 Hz - ENG
Формат субтитров: softsub (SRT)
-Скриншоты Резервные скриншоты
-
MediaInfo
Format : Matroska
Format version : Version 4 / Version 2
File size : 3.35 GiB
Duration : 1h 26mn
Overall bit rate : 5 571 Kbps
Movie name : Разыскиваются в Малибу / Malibu's Most Wanted (2003) WEB-DL 1080p
Encoded date : UTC 2015-07-02 13:45:29
Writing application : mkvmerge v8.1.0 ('Psychedelic Postcard') 32bit
Writing library : libebml v1.3.1 + libmatroska v1.4.2
Cover : Yes
Video
ID : 1
Format : AVC
Format/Info : Advanced Video Codec
Format profile : High@L4.0
Format settings, CABAC : Yes
Format settings, ReFrames : 5 frames
Format settings, GOP : N=2
Codec ID : V_MPEG4/ISO/AVC
Duration : 1h 26mn
Bit rate : 4 308 Kbps
Width : 1 918 pixels
Height : 796 pixels
Display aspect ratio : 2.40:1
Frame rate mode : Constant
Frame rate : 23.976 fps
Color space : YUV
Chroma subsampling : 4:2:0
Bit depth : 8 bits
Scan type : Progressive
Bits/(Pixel*Frame) : 0.118
Stream size : 2.59 GiB (77%)
Language : English
Default : Yes
Forced : No
Color primaries : BT.709
Transfer characteristics : BT.709
Matrix coefficients : BT.709
Audio #1
ID : 2
Format : AC-3
Format/Info : Audio Coding 3
Mode extension : CM (complete main)
Format settings, Endianness : Big
Codec ID : A_AC3
Duration : 1h 26mn
Bit rate mode : Constant
Bit rate : 384 Kbps
Channel(s) : 6 channels
Channel positions : Front: L C R, Side: L R, LFE
Sampling rate : 48.0 KHz
Bit depth : 16 bits
Compression mode : Lossy
Stream size : 237 MiB (7%)
Title : DVO
Language : Russian
Default : Yes
Forced : No
Audio #2
ID : 3
Format : AC-3
Format/Info : Audio Coding 3
Mode extension : CM (complete main)
Format settings, Endianness : Big
Codec ID : A_AC3
Duration : 1h 26mn
Bit rate mode : Constant
Bit rate : 384 Kbps
Channel(s) : 6 channels
Channel positions : Front: L C R, Side: L R, LFE
Sampling rate : 48.0 KHz
Bit depth : 16 bits
Compression mode : Lossy
Stream size : 237 MiB (7%)
Title : AVO - Rudoj
Language : Russian
Default : No
Forced : No
Audio #3
ID : 4
Format : AC-3
Format/Info : Audio Coding 3
Mode extension : CM (complete main)
Format settings, Endianness : Big
Codec ID : A_AC3
Duration : 1h 26mn
Bit rate mode : Constant
Bit rate : 384 Kbps
Channel(s) : 6 channels
Channel positions : Front: L C R, Side: L R, LFE
Sampling rate : 48.0 KHz
Bit depth : 16 bits
Compression mode : Lossy
Stream size : 237 MiB (7%)
Language : English
Default : No
Forced : No
Text
ID : 5
Format : UTF-8
Codec ID : S_TEXT/UTF8
Codec ID/Info : UTF-8 Plain Text
Language : Russian
Default : No
Forced : No
Скачать

Скачать торрент!

Как скачивать? · Что такое торрент? · Рейтинг и ограничения

Сайт не распространяет и не хранит электронные версии произведений, а лишь предоставляет доступ к создаваемому пользователями каталогу ссылок на торрент-файлы, которые содержат только списки хеш-сумм

[Профиль] [ЛС]
Показать сообщения:    
Ответить на тему

Текущее время: Сегодня 18:10

Часовой пояс: GMT + 4



Вы не можете начинать темы
Вы не можете отвечать на сообщения
Вы не можете редактировать свои сообщения
Вы не можете удалять свои сообщения
Вы не можете голосовать в опросах
Вы не можете прикреплять файлы к сообщениям
Вы не можете скачивать файлы