В тылу врага / Behind Enemy Lines (Джон Мур / John Moore) [2001, США, боевик, триллер, драма, военный, HDTV 1080i] [Open Matte] Dub

Ответить на тему
 
Автор Сообщение

user ®

Стаж: 7 лет 7 месяцев

Сообщений: 20008

Пост Пост: #1 от 21-Июл-2015 21:54

[Цитировать]

В тылу врага / Behind Enemy Lines / Open Matte
Страна: США
Жанр: боевик, триллер, драма, военный
Год выпуска: 2001
Продолжительность: 01:36:33
Перевод: Профессиональный (дублированный)
Cубтитры: нет
Оригинальная аудиодорожка: нет
Режиссер: Джон Мур / John Moore
В ролях: Оуэн Уилсон, Джин Хэкмен, Гэбриел Махт, Чарльз Малик Уитфилд, Дэвид Кит, Олек Крупа, Жоаким ди Алмейда, Владимир Машков, Марко Игонда, Эял Поделл
Описание: Молодой лейтенант ВВС США Крис Бернетт, один из лучших военно-морских летчиков, по жизни мечтает о том, чтобы ему выпал шанс поучаствовать в настоящих боевых действиях вместо того, чтобы наблюдать за тренировками своих коллег. Однако его командир, адмирал Рейгарт считает, что Крис еще не готов… Да и боевых действий-то особо как-то не предвидится.
Но вот, во время одной из разведывательных миссий, Бернетт фотографирует то, что не было предназначено для чужих глаз и его самолет сбивают. Летчик оказывается в тылу врага, который хочет уничтожить шпиона. Время идет, и адмирал Рейгарт, рискуя своей карьерой, решает нарушить все правила и организовать спасательную операцию, чтобы вернуть своего ученика…
Доп. информация: Запись с канала Первый HD. Наполнение кадра в основном больше, чем на BD. http://screenshotcomparison.com/comparison/135610
Сэмпл: http://multi-up.com/1059207
Тип релиза: HDTV 1080i
Контейнер: TS
Видео: AVC, 1920x1080 (16:9), 25.000 fps, 11.3 Mbps (0.218 bit/pixel)
Аудио: MP2, 48.0 KHz, 2 ch, 192 Kbps, CBR (Russian)
MediaInfo
Общее
Идентификатор : 3 (0x3)
Полное имя : K:\В тылу врага.ts
Формат : MPEG-TS
Размер файла : 8,17 Гбайт
Продолжительность : 1 ч. 36 м.
Режим общего битрейта : Переменный
Общий поток : 12,1 Мбит/сек
Видео
Идентификатор : 2141 (0x85D)
Идентификатор меню : 21004 (0x520C)
Формат : AVC
Формат/Информация : Advanced Video Codec
Профиль формата : Main@L4
Параметр CABAC формата : Да
Параметр ReFrames формата : 3 кадра
Идентификатор кодека : 27
Продолжительность : 1 ч. 36 м.
Битрейт : 11,3 Мбит/сек
Ширина : 1920 пикселей
Высота : 1080 пикселей
Соотношение сторон : 16:9
Частота кадров : 25,000 кадров/сек
Стандарт вещания : Component
Цветовое пространство : YUV
Субдискретизация насыщенности : 4:2:0
Битовая глубина : 8 бит
Тип развёртки : Чересстрочная
Порядок развёртки : Верхнее поле первое
Бит/(Пиксели*Кадры) : 0.218
Размер потока : 7,63 Гбайт (93%)
Цветовой диапазон : Limited
Основные цвета : BT.709
Характеристики трансфера : BT.709
Коэффициенты матрицы : BT.709
Аудио
Идентификатор : 2142 (0x85E)
Идентификатор меню : 21004 (0x520C)
Формат : MPEG Audio
Версия формата : Version 1
Профиль формата : Layer 2
Идентификатор кодека : 4
Продолжительность : 1 ч. 36 м.
Вид битрейта : Постоянный
Битрейт : 192 Кбит/сек
Каналы : 2 канала
Частота : 48,0 КГц
Метод сжатия : С потерями
Задержка видео : -8 мс.
Размер потока : 133 Мбайт (2%)
Язык : Russian
Скриншоты
Скачать

Скачать торрент!

Как скачивать? · Что такое торрент? · Рейтинг и ограничения

Сайт не распространяет и не хранит электронные версии произведений, а лишь предоставляет доступ к создаваемому пользователями каталогу ссылок на торрент-файлы, которые содержат только списки хеш-сумм

[Профиль] [ЛС]
Показать сообщения:    
Ответить на тему

Текущее время: Сегодня 00:27

Часовой пояс: GMT + 4



Вы не можете начинать темы
Вы не можете отвечать на сообщения
Вы не можете редактировать свои сообщения
Вы не можете удалять свои сообщения
Вы не можете голосовать в опросах
Вы не можете прикреплять файлы к сообщениям
Вы не можете скачивать файлы