Случайная любовь / Любовь крупным планом / Love at Large (Алан Рудольф / Alan Rudolph) [1990, США, детектив, мелодрама, комедия, HDTV 1080i] DVO (НТВ+) + Original Eng

Ответить на тему
 
Автор Сообщение

user ®

Стаж: 7 лет 7 месяцев

Сообщений: 20008

Пост Пост: #1 от 21-Июл-2015 00:15

[Цитировать]

Случайная любовь / Любовь крупным планом / Love at Large-Страна: США
Студия: David Blocker Productions | Orion Pictures
Жанр: детектив, мелодрама, комедия
Год выпуска: 1990
Продолжительность: 01:33:21-Перевод: Профессиональный (двухголосый закадровый) НТВ+ /Марина Тарасова, Александр Коврижных/
Cубтитры: нет
Оригинальная аудиодорожка: английский-Режиссер: Алан Рудольф / Alan Rudolph
В ролях: Том Беренджер, Элизабет Перкинс, Энн Арчер, Кейт Кэпшоу, Аннетт О'Тул, Тед Левайн, Энн Мэгнусон, Кевин Дж. О'Коннор, Руби Ди, Барри Миллер, Гэйлард Сартэйн, Роберт Гулд, Дирк Блокер, Дебра Дюсэй, Саншайн Паркер, Билли Силва, Лаура Кенни...- | Релиз: -Описание: Гарри Доббс — частный детектив. Его очередная клиентка — шикарная дама, которая поручает Доббсу следить за бывшим мужем и выяснить, кто его новая пассия. В первый день слежки Доббс принимает постороннего мужчину за свой «объект» и выясняет массу провокативных подробностей его жизни. Параллельно ревнивая подруга детектива нанимает начинающего сыщика Стеллу, чтобы следить за Доббсом…-Семпл: http://sendfile.su/1138328-Тип релиза: HDTV 1080i
Контейнер: TS
Видео: 1920x1080i (16:9), 25.000 fps, AVC, ~6123 Kbps, 0.118 bits/pixel
Аудио 1: Русский, 48.0 KHz, MPEG-1 Audio layer 2, 2 ch, 192 kbps
Аудио 2: English, 48.0 KHz, MPEG-1 Audio layer 2, 2 ch, 192 kbps
MediaInfo
GeneralID : 1 (0x1)Complete name : Love at Large 1990 MGMHD 1080i.rus.eng.tsFormat : MPEG-TSFile size : 4.47 GiBDuration : 1h 33mnOverall bit rate mode : VariableOverall bit rate : 6 849 KbpsMaximum Overall bit rate : 35.5 Mbps
VideoID : 4113 (0x1011)Menu ID : 1 (0x1)Format : AVCFormat/Info : Advanced Video CodecFormat profile : Main@L4Format settings, CABAC : YesFormat settings, ReFrames : 4 framesCodec ID : 27Duration : 1h 33mnBit rate : 6 123 KbpsWidth : 1 920 pixelsHeight : 1 080 pixelsDisplay aspect ratio : 16:9Frame rate : 25.000 fpsStandard : ComponentColor space : YUVChroma subsampling : 4:2:0Bit depth : 8 bitsScan type : InterlacedScan order : Top Field FirstBits/(Pixel*Frame) : 0.118Stream size : 3.99 GiB (89%)Color range : LimitedColor primaries : BT.709Transfer characteristics : BT.709Matrix coefficients : BT.709
Audio #1ID : 4352 (0x1100)Menu ID : 1 (0x1)Format : MPEG AudioFormat version : Version 1Format profile : Layer 2Codec ID : 4Duration : 1h 33mnBit rate mode : ConstantBit rate : 192 KbpsChannel(s) : 2 channelsSampling rate : 48.0 KHzCompression mode : LossyStream size : 128 MiB (3%)Language : Russian
Audio #2ID : 4353 (0x1101)Menu ID : 1 (0x1)Format : MPEG AudioFormat version : Version 1Format profile : Layer 2Codec ID : 4Duration : 1h 33mnBit rate mode : ConstantBit rate : 192 KbpsChannel(s) : 2 channelsSampling rate : 48.0 KHzCompression mode : LossyStream size : 128 MiB (3%)Language : English
Скриншоты
Скачать

Скачать торрент!

Как скачивать? · Что такое торрент? · Рейтинг и ограничения

Сайт не распространяет и не хранит электронные версии произведений, а лишь предоставляет доступ к создаваемому пользователями каталогу ссылок на торрент-файлы, которые содержат только списки хеш-сумм

[Профиль] [ЛС]
Показать сообщения:    
Ответить на тему

Текущее время: Сегодня 18:09

Часовой пояс: GMT + 4



Вы не можете начинать темы
Вы не можете отвечать на сообщения
Вы не можете редактировать свои сообщения
Вы не можете удалять свои сообщения
Вы не можете голосовать в опросах
Вы не можете прикреплять файлы к сообщениям
Вы не можете скачивать файлы