Дикая орхидея 2: Два оттенка грусти / Wild Orchid II: Two Shades of Blue / Wild Orchid 2: Blue Movie Blue (Залман Кинг / Zalman King) [1991, США, драма, мелодрама, HDTV 1080i] DVO (НТВ+) + Original Eng

Ответить на тему
 
Автор Сообщение

user ®

Стаж: 7 лет 7 месяцев

Сообщений: 20008

Пост Пост: #1 от 21-Июл-2015 00:15

[Цитировать]

Дикая орхидея 2: Два оттенка грусти / Wild Orchid 2: Blue Movie Blue-Страна: США
Студия: Vision PDG
Жанр: драма, мелодрама
Год выпуска: 1991
Продолжительность: 01:43:18-Перевод: Профессиональный (двухголосый закадровый) НТВ+ /Галина Исхакова, Александр Коврижных/
Cубтитры: нет
Оригинальная аудиодорожка: английский-Режиссер: Залман Кинг / Zalman King
В ролях: Уэнди Хьюз, Том Скеррит, Роберт Дэйви, Брент Фрейзер, Нина Семашко, Кристофер МакДональд, Джо Даллесандро, Кейси Сэндер, Стэффорд Морган, Дон Блумфилд...- | Релиз: -Описание: После смерти джазового музыканта, злоупотреблявшего наркотиками, его дочь, школьница Блю, в попытках выжить в окружающем ее жестоком мире, оказывается в публичном доме. Там о ней по-настоящему заботятся, но как о прекрасной вещи, как о нежном и хрупком инструменте для выкачивания денег.
По-прежнему маленькая девочка становится искушенной опытной женщиной и познает все прелести темной стороны жизни. И Блю предпринимает отчаянную попытку вернуться в отнятый у нее мир юности, нормальной жизни и любви.-Семпл: http://sendfile.su/1138345-Тип релиза: HDTV 1080i
Контейнер: TS
Видео: 1920x1080i (16:9), 25.000 fps, AVC, ~5401 Kbps, 0.104 bits/pixel
Аудио 1: Русский, 48.0 KHz, MPEG-1 Audio layer 2, 2 ch, 192 kbps
Аудио 2: English, 48.0 KHz, MPEG-1 Audio layer 2, 2 ch, 192 kbps
MediaInfo
GeneralID : 1 (0x1)Complete name : Wild Orchid 2 - Blue Movie Blue 1991 MGMHD 1080i.rus.eng.tsFormat : MPEG-TSFile size : 4.39 GiBDuration : 1h 43mnOverall bit rate mode : VariableOverall bit rate : 6 090 KbpsMaximum Overall bit rate : 35.5 Mbps
VideoID : 4113 (0x1011)Menu ID : 1 (0x1)Format : AVCFormat/Info : Advanced Video CodecFormat profile : Main@L4Format settings, CABAC : YesFormat settings, ReFrames : 4 framesCodec ID : 27Duration : 1h 43mnBit rate : 5 401 KbpsWidth : 1 920 pixelsHeight : 1 080 pixelsDisplay aspect ratio : 16:9Frame rate : 25.000 fpsStandard : ComponentColor space : YUVChroma subsampling : 4:2:0Bit depth : 8 bitsScan type : InterlacedScan order : Top Field FirstBits/(Pixel*Frame) : 0.104Stream size : 3.90 GiB (89%)Color range : LimitedColor primaries : BT.709Transfer characteristics : BT.709Matrix coefficients : BT.709
Audio #1ID : 4352 (0x1100)Menu ID : 1 (0x1)Format : MPEG AudioFormat version : Version 1Format profile : Layer 2Codec ID : 4Duration : 1h 43mnBit rate mode : ConstantBit rate : 192 KbpsChannel(s) : 2 channelsSampling rate : 48.0 KHzCompression mode : LossyStream size : 142 MiB (3%)Language : Russian
Audio #2ID : 4353 (0x1101)Menu ID : 1 (0x1)Format : MPEG AudioFormat version : Version 1Format profile : Layer 2Codec ID : 4Duration : 1h 43mnBit rate mode : ConstantBit rate : 192 KbpsChannel(s) : 2 channelsSampling rate : 48.0 KHzCompression mode : LossyStream size : 142 MiB (3%)Language : English
Скриншоты
Скачать

Скачать торрент!

Как скачивать? · Что такое торрент? · Рейтинг и ограничения

Сайт не распространяет и не хранит электронные версии произведений, а лишь предоставляет доступ к создаваемому пользователями каталогу ссылок на торрент-файлы, которые содержат только списки хеш-сумм

[Профиль] [ЛС]
Показать сообщения:    
Ответить на тему

Текущее время: Сегодня 03:14

Часовой пояс: GMT + 4



Вы не можете начинать темы
Вы не можете отвечать на сообщения
Вы не можете редактировать свои сообщения
Вы не можете удалять свои сообщения
Вы не можете голосовать в опросах
Вы не можете прикреплять файлы к сообщениям
Вы не можете скачивать файлы